Bee Gees - In The Morning (1975) [LP,Reissue,DSD128]

Posted By: Discograf_man
Bee Gees - In The Morning (1975) [LP,Reissue,DSD128]

Bee Gees - In The Morning (1975) [LP,Reissue,DSD128]
Soft Rock, Pop Rock, Ballad, Vocal | DSD128 (*.dsf, tracks), 1-bit/5.64 MHz
Run Time: 00:45:43 | 3.79 GB + 5% Recovery
Label: RSO Records | Release Year: 1975

The Bee Gees, a pop music group, formed in 1958 and consisted principally of brothers Barry, Robin, and Maurice Gibb. The trio were successful for most of their decades of recording music, but they had two distinct periods of exceptional success: as a rock act in the late 1960s and early 1970s, and as prominent performers of the disco-music era in the late 1970s. This article provides an extensive discography of their hits across the world where they scored success in countries such as Australia, Germany and the United States.
Bee Gees - In The Morning (1975) [LP,Reissue,DSD128]

Bee Gees - In The Morning (1975) [LP,Reissue,DSD128]

Tracklist:

Side 1

A1 In The Morning 3:53
A2 Lonely Days 3:45
A3 Massachusetts 2:20
A4 To Love Somebody 3:00
A5 Turn Of The Century 2:25
A6 World 3:08
A7 Country Woman 2:45

Side 2
B1 Melody Fair 3:45
B2 How Can You Mend A Broken Heart 3:56
B3 Two Years On 3:56
B4 I Started A Joke 3:08
B5 Holiday 2:53
B6 Man For All Seasons 2:58
B7 First Of May 2:47

Bee Gees - In The Morning (1975) [LP,Reissue,DSD128]


foobar2000 1.4 / Dynamic Range Meter 1.1.1
log date: 2019-07-11 13:47:37

––––––––––––––––––––––––––––––––––––––––
Analyzed: The Bee Gees / In The Morning,(RSO-MW 2129,Japan)
––––––––––––––––––––––––––––––––––––––––

DR Peak RMS Duration Track
––––––––––––––––––––––––––––––––––––––––
DR12 -3.53 dB -23.42 dB 3:55 ?-A1 In The Morning
DR13 -5.29 dB -24.18 dB 3:51 ?-A2 Lonely Days
DR11 -6.61 dB -20.81 dB 2:25 ?-A3 Massachusetts
DR11 -7.14 dB -22.80 dB 3:05 ?-A4 To Love Somebody
DR12 -5.56 dB -20.94 dB 2:28 ?-A5 Turn Of The Century
DR11 -7.19 dB -21.51 dB 3:13 ?-A6 World
DR13 -7.34 dB -22.74 dB 2:49 ?-A7 Country Woman
DR12 -6.54 dB -21.36 dB 3:49 ?-B1 Melody Fair
DR13 -7.47 dB -23.89 dB 4:01 ?-B2 How Can You Mend A Broken Heart
DR12 -7.93 dB -24.31 dB 4:04 ?-B3 Two Years On
DR12 -7.51 dB -22.13 dB 3:13 ?-B4 I Started A Joke
DR10 -10.25 dB -24.32 dB 2:57 ?-B5 Holiday
DR11 -9.46 dB -24.91 dB 3:05 ?-B6 Man For All Seasons
DR12 -9.95 dB -26.15 dB 2:51 ?-B7 First Of May
––––––––––––––––––––––––––––––––––––––––

Number of tracks: 14
Official DR value: DR12

Samplerate: 5644800 Hz / PCM Samplerate: 88200 Hz
Channels: 2
Bits per sample: 1
Bitrate: 11290 kbps
Codec: DSD128
================================================================================

Thanks to the original releaser!