Benjamin Alard - Johann Sebastian Bach - The Complete Works for Keyboard, Vol. 4 ''Alla Veneziana'' (2021) [24/96]

Posted By: pyatak
Benjamin Alard - Johann Sebastian Bach - The Complete Works for Keyboard, Vol. 4 ''Alla Veneziana'' (2021) [24/96]

Benjamin Alard - Johann Sebastian Bach - The Complete Works for Keyboard, Vol. 4 ''Alla Veneziana'' (2021) [Official Digital Download 24/96]
FLAC (tracks) 24-bit/96 kHz | Front Cover | Time - 03:14:45 minutes | 4,14 GB
Classical | Label: Harmonia mundi, Official Digital Download

Volume 4 of Benjamin Alard's complete recording of Bach's keyboard works continues to explore the Weimar period. After À la française, we turn to Italy, where the Vivaldian concerto reigned in Venice. The young Bach created here a wonderful space of freedom between the transcriber and the improviser. Benjamin Alard performs on three exceptional instruments, including a magnificent 1702 harpsichord by Mattia de Gand, preserved in Treviso and recently restored.

TRACKLIST

01. Benjamin Alard - Concerto in G Major, BWV 973: I. [no indication]
02. Benjamin Alard - Concerto in G Major, BWV 973: II. Largo
03. Benjamin Alard - Concerto in G Major, BWV 973: III. Allegro
04. Benjamin Alard - Concerto in G Minor, BWV 975: I. [no indication]
05. Benjamin Alard - Concerto in G Minor, BWV 975: II. Largo
06. Benjamin Alard - Concerto in G Minor, BWV 975: III. Giga Presto
07. Benjamin Alard - Concerto in B Minor, BWV 979: I. Allegro
08. Benjamin Alard - Concerto in B Minor, BWV 979: II. Adagio
09. Benjamin Alard - Concerto in B Minor, BWV 979: III. Allegro
10. Benjamin Alard - Concerto in B Minor, BWV 979: IV. Andante
11. Benjamin Alard - Concerto in B Minor, BWV 979: V. Adagio
12. Benjamin Alard - Concerto in B Minor, BWV 979: VI. Allegro
13. Benjamin Alard - Concerto in D Major, BWV 972: I. [no indication]
14. Benjamin Alard - Concerto in D Major, BWV 972: II. Larghetto
15. Benjamin Alard - Concerto in D Major, BWV 972: III. Allegro
16. Benjamin Alard - Fantasia and Fugue in A Minor, BWV 944
17. Benjamin Alard - Concerto in D Minor, BWV 974: I. [no indication]
18. Benjamin Alard - Concerto in D Minor, BWV 974: II. Adagio
19. Benjamin Alard - Concerto in D Minor, BWV 974: III. Presto
20. Benjamin Alard - Prelude and Fugue in A Minor, BWV 894: I. Prelude
21. Benjamin Alard - Prelude and Fugue in A Minor, BWV 894: II. Fugue
22. Benjamin Alard - Concerto in G Major, BWV 980: I. [no indication]
23. Benjamin Alard - Concerto in G Major, BWV 980: II. Largo
24. Benjamin Alard - Concerto in G Major, BWV 980: III. Allegro
25. Benjamin Alard - Organ Concerto in A Minor, BWV 593: I. [Allegro]
26. Benjamin Alard - Organ Concerto in A Minor, BWV 593: II. Adagio
27. Benjamin Alard - Organ Concerto in A Minor, BWV 593: III. Allegro
28. Benjamin Alard - Concerto in F Major, BWV 978: I. Allegro
29. Benjamin Alard - Concerto in F Major, BWV 978: II. Largo
30. Benjamin Alard - Concerto in F Major, BWV 978: III. Allegro
31. Benjamin Alard - Organ Concerto in D Minor, BWV 596: I. [Allegro]
32. Benjamin Alard - Organ Concerto in D Minor, BWV 596: II. Grave
33. Benjamin Alard - Organ Concerto in D Minor, BWV 596: III. Fuga
34. Benjamin Alard - Organ Concerto in D Minor, BWV 596: IV. Largo e spiccato
35. Benjamin Alard - Organ Concerto in D Minor, BWV 596: V. [no indication]
36. Benjamin Alard - Concerto in C Major, BWV 976: I. [no indication]
37. Benjamin Alard - Concerto in C Major, BWV 976: II. Largo
38. Benjamin Alard - Concerto in C Major, BWV 976: III. Allegro
39. Benjamin Alard - Prelude and Fugue in G Minor, BWV 535
40. Benjamin Alard - Organ Concerto in G Major, BWV 592: I. [Adagio]
41. Benjamin Alard - Organ Concerto in G Major, BWV 592: II. Grave
42. Benjamin Alard - Organ Concerto in G Major, BWV 592: III. Presto
43. Benjamin Alard - Fantasie and Fugue in G Minor, BWV 542/2 (excerpt): II. Fugue
44. Benjamin Alard - Organ Concerto in C Major, BWV 594: I. [Allegro]
45. Benjamin Alard - Organ Concerto in C Major, BWV 594: II. Recitativ. Adagio
46. Benjamin Alard - Organ Concerto in C Major, BWV 594: III. Allegro
47. Benjamin Alard - "Wo soll ich fliehen hin", BWV 694
48. Benjamin Alard - Trio for organ in D Minor, BWV 583
49. Benjamin Alard - "Valet will ich dir geben", BWV 736
50. Benjamin Alard - Trio super "Allein Gott in der Höh sei Ehr", BWV 664
51. Benjamin Alard - "Wir glauben all an einen Gott" BWV-Anh. 69
52. Benjamin Alard - "Vom Himmel hoch, da komm ich her" BWV-Anh. 65
53. Benjamin Alard - "Freu dich sehr, o meine Seele" BWV-Anh. 52
54. Benjamin Alard - "Jesu, meine Freude" BWV-Anh. 58
55. Benjamin Alard - Toccata in C Major, BWV 564: I. Toccata
56. Benjamin Alard - Toccata in C Major, BWV 564: II. Adagio
57. Benjamin Alard - Toccata in C Major, BWV 564: III. Fugue

foobar2000 1.6.2 / Dynamic Range Meter 1.1.1
log date: 2021-01-13 22:32:22

––––––––––––––––––––––––––––––––––––––––
Analyzed: Benjamin Alard / Johann Sebastian Bach: The Complete Works for Keyboard, Vol. 4 "Alla Veneziana"
––––––––––––––––––––––––––––––––––––––––

DR Peak RMS Duration Track
––––––––––––––––––––––––––––––––––––––––
DR12 -2.08 dB -16.26 dB 2:11 01-Concerto in G Major, BWV 973: I. [no indication]
DR11 -7.07 dB -21.78 dB 1:56 02-Concerto in G Major, BWV 973: II. Largo
DR11 -1.84 dB -15.97 dB 2:27 03-Concerto in G Major, BWV 973: III. Allegro
DR12 -2.45 dB -17.30 dB 3:08 04-Concerto in G Minor, BWV 975: I. [no indication]
DR12 -5.31 dB -20.91 dB 3:08 05-Concerto in G Minor, BWV 975: II. Largo
DR11 -2.93 dB -16.88 dB 2:06 06-Concerto in G Minor, BWV 975: III. Giga Presto
DR11 -2.52 dB -15.83 dB 1:16 07-Concerto in B Minor, BWV 979: I. Allegro
DR11 -6.16 dB -21.75 dB 0:40 08-Concerto in B Minor, BWV 979: II. Adagio
DR12 -2.89 dB -16.82 dB 3:18 09-Concerto in B Minor, BWV 979: III. Allegro
DR11 -5.23 dB -18.88 dB 1:09 10-Concerto in B Minor, BWV 979: IV. Andante
DR11 -6.22 dB -20.63 dB 0:46 11-Concerto in B Minor, BWV 979: V. Adagio
DR12 -1.91 dB -17.19 dB 3:44 12-Concerto in B Minor, BWV 979: VI. Allegro
DR11 -2.12 dB -16.00 dB 2:06 13-Concerto in D Major, BWV 972: I. [no indication]
DR10 -6.17 dB -19.86 dB 3:03 14-Concerto in D Major, BWV 972: II. Larghetto
DR12 -1.37 dB -15.94 dB 2:16 15-Concerto in D Major, BWV 972: III. Allegro
DR11 -2.47 dB -17.26 dB 7:55 16-Fantasia and Fugue in A Minor, BWV 944
DR12 -2.31 dB -17.14 dB 3:05 17-Concerto in D Minor, BWV 974: I. [no indication]
DR11 -4.42 dB -20.30 dB 3:23 18-Concerto in D Minor, BWV 974: II. Adagio
DR12 -1.97 dB -16.49 dB 3:47 19-Concerto in D Minor, BWV 974: III. Presto
DR12 -2.27 dB -16.76 dB 5:46 20-Prelude and Fugue in A Minor, BWV 894: I. Prelude
DR12 -2.67 dB -17.28 dB 4:38 21-Prelude and Fugue in A Minor, BWV 894: II. Fugue
DR12 -1.45 dB -15.44 dB 3:56 22-Concerto in G Major, BWV 980: I. [no indication]
DR15 -8.96 dB -28.43 dB 3:05 23-Concerto in G Major, BWV 980: II. Largo
DR13 -2.21 dB -16.60 dB 4:05 24-Concerto in G Major, BWV 980: III. Allegro
DR12 -2.05 dB -16.66 dB 3:49 25-Organ Concerto in A Minor, BWV 593: I. [Allegro]
DR12 -4.32 dB -20.13 dB 3:39 26-Organ Concerto in A Minor, BWV 593: II. Adagio
DR11 -2.18 dB -17.45 dB 3:52 27-Organ Concerto in A Minor, BWV 593: III. Allegro
DR11 -2.73 dB -15.54 dB 2:21 28-Concerto in F Major, BWV 978: I. Allegro
DR13 -0.61 dB -16.86 dB 1:28 29-Concerto in F Major, BWV 978: II. Largo
DR12 -1.45 dB -15.95 dB 2:37 30-Concerto in F Major, BWV 978: III. Allegro
DR11 -1.88 dB -16.80 dB 0:54 31-Organ Concerto in D Minor, BWV 596: I. [Allegro]
DR12 -0.84 dB -15.30 dB 0:17 32-Organ Concerto in D Minor, BWV 596: II. Grave
DR12 -1.32 dB -15.40 dB 3:08 33-Organ Concerto in D Minor, BWV 596: III. Fuga
DR12 -5.35 dB -19.85 dB 2:37 34-Organ Concerto in D Minor, BWV 596: IV. Largo e spiccato
DR12 -1.18 dB -17.20 dB 3:08 35-Organ Concerto in D Minor, BWV 596: V. [no indication]
DR12 -2.14 dB -15.99 dB 4:03 36-Concerto in C Major, BWV 976: I. [no indication]
DR13 -7.93 dB -23.07 dB 3:09 37-Concerto in C Major, BWV 976: II. Largo
DR13 -0.61 dB -14.77 dB 3:10 38-Concerto in C Major, BWV 976: III. Allegro
DR13 -0.61 dB -16.38 dB 6:56 39-Prelude and Fugue in G Minor, BWV 535
DR11 -0.69 dB -15.87 dB 3:11 40-Organ Concerto in G Major, BWV 592: I. [Adagio]
DR11 -6.18 dB -19.84 dB 2:00 41-Organ Concerto in G Major, BWV 592: II. Grave
DR11 -1.79 dB -16.10 dB 1:56 42-Organ Concerto in G Major, BWV 592: III. Presto
DR12 -1.12 dB -15.77 dB 6:07 43-Fantasie and Fugue in G Minor, BWV 542/2 (excerpt): II. Fugue
DR12 -3.13 dB -20.03 dB 7:09 44-Organ Concerto in C Major, BWV 594: I. [Allegro]
DR12 -3.98 dB -20.32 dB 3:33 45-Organ Concerto in C Major, BWV 594: II. Recitativ. Adagio
DR12 -1.62 dB -19.65 dB 8:40 46-Organ Concerto in C Major, BWV 594: III. Allegro
DR10 -4.78 dB -17.39 dB 3:14 47-"Wo soll ich fliehen hin", BWV 694
DR10 -6.19 dB -18.01 dB 4:57 48-Trio for organ in D Minor, BWV 583
DR10 -1.15 dB -14.23 dB 4:05 49-"Valet will ich dir geben", BWV 736
DR10 -6.12 dB -18.48 dB 5:33 50-Trio super "Allein Gott in der Höh sei Ehr", BWV 664
DR11 -4.36 dB -18.20 dB 3:05 51-"Wir glauben all an einen Gott" BWV-Anh. 69
DR10 -6.43 dB -20.15 dB 1:16 52-"Vom Himmel hoch, da komm ich her" BWV-Anh. 65
DR10 -10.97 dB -23.03 dB 3:30 53-"Freu dich sehr, o meine Seele" BWV-Anh. 52
DR10 -3.66 dB -16.28 dB 3:07 54-"Jesu, meine Freude" BWV-Anh. 58
DR12 -1.70 dB -16.23 dB 5:37 55-Toccata in C Major, BWV 564: I. Toccata
DR10 -2.54 dB -17.68 dB 4:39 56-Toccata in C Major, BWV 564: II. Adagio
DR12 -0.38 dB -15.94 dB 5:04 57-Toccata in C Major, BWV 564: III. Fugue
––––––––––––––––––––––––––––––––––––––––

Number of tracks: 57
Official DR value: DR12

Samplerate: 96000 Hz
Channels: 2
Bits per sample: 24
Bitrate: 2788 kbps
Codec: FLAC
================================================================================



Thanks to the Original customer.