Bertice Reading - Confessin' That I Love You (Remastered) (2020) [Official Digital Download 24/192]

Posted By: SERTiL
Bertice Reading - Confessin' That I Love You (Remastered) (2020) [Official Digital Download 24/192]

Bertice Reading - Confessin' That I Love You (Remastered) (2020)
FLAC (tracks) 24-bit/192 kHz | Time - 36:11 minutes | 1.17 GB
Studio Master, Official Digital Download | Artwork: Digital Booklet

Bertice grasps and captivates each member of the audience in this album which was recorded in 1974, in a jazz club with no footlights to lend formality and distance. She was better known in England where she was based for most of her career, than in her native USA although she earned a Tony Award nomination for her Broadway performance in William Faulkner’s Requiem for a Nun and appeared in the movie version of Little Shop of Horror. Adept at a whole range of musical styles, from gospel to blues to musical comedy, in addition to her talent, Reading also had a striking appearance and a renowned sense of humour.

She’s a discovery for us at 2xHD and hopefully you’ll enjoy her as much as we do.

Tracklist:
01. I Left My Heart In San Francisco (3:56)
02. Show Boat: Can't Help Lovin' That Man (4:18)
03. I'm Confessin' (That I Love You) (3:56)
04. Don't Take Your Love from Me (3:58)
05. Strangers in the Night (4:24)
06. I Cried for You (4:41)
07. And the Angels Sing: It Could Happen to You (3:39)
08. How About You: Babes on Broadway: How About You (Live) (3:36)
09. Murder at the Vanities: Cocktails for Two (3:50)

Personnel:
Bertice Reading, vocals
Koos Van Der Sluis, bass
Ted Easton, drums
Chris Smildiger, piano
Sidney Pfeffer, tenor saxophone

foobar2000 1.3.7 / Dynamic Range Meter 1.1.1
log date: 2020-02-04 18:30:56

––––––––––––––––––––––––––––––––––––––––
Analyzed: Bertice Reading / Confessin' That I Love You (Remastered)
––––––––––––––––––––––––––––––––––––––––

DR Peak RMS Duration Track
––––––––––––––––––––––––––––––––––––––––
DR13 -1.62 dB -17.99 dB 3:56 01-I Left My Heart In San Francisco
DR12 -3.36 dB -17.26 dB 4:18 02-Show Boat: Can't Help Lovin' That Man
DR13 -2.55 dB -18.29 dB 3:56 03-I'm Confessin' (That I Love You)
DR11 -2.76 dB -16.37 dB 3:58 04-Don't Take Your Love from Me
DR13 -2.05 dB -18.31 dB 4:24 05-Strangers in the Night
DR11 -2.33 dB -16.77 dB 4:41 06-I Cried for You
DR13 -2.65 dB -18.82 dB 3:39 07-And the Angels Sing: It Could Happen to You
DR12 -2.16 dB -16.69 dB 3:36 08-How About You: Babes on Broadway: How About You (Live)
DR15 -2.50 dB -20.51 dB 3:50 09-Murder at the Vanities: Cocktails for Two
––––––––––––––––––––––––––––––––––––––––

Number of tracks: 9
Official DR value: DR12

Samplerate: 192000 Hz
Channels: 2
Bits per sample: 24
Bitrate: 4476 kbps
Codec: FLAC
================================================================================


Thanks to the Original customer.