Tags
Language
Tags

Bester Quartet - Bajgelman. Get To Tango (2020) [Official Digital Download]

Posted By: pyatak
Bester Quartet - Bajgelman. Get To Tango (2020) [Official Digital Download]

Bester Quartet - Bajgelman. Get To Tango (2020) [Official Digital Download]
FLAC (tracks) 24-bit/44.1 kHz | Front Cover | Time - 51:54 minutes | 588 MB
Jazz | Label: Universal Music Polska Sp. z o.o., Official Digital Download

The programme of the album "Bajgelman. Get to Tango" intersperses pieces from the interwar period with music from the Łódź Ghetto. The story of Dawid Bajgelman’s life and work is told in the characteristic style and sound of Bester Quartet, made up of the leader’s (Jarek Bester’s) accordion, Dawid Lubowicz’s violin, Maciej Adamczak’s bass, and Ryszard Pałka’s percussion, and complemented by contributions from such eminent guest musicians as Krzysztof Lenczowski (cello), Michał Bylica (trumpet), and, perhaps most importantly, of leading Polishjazz singers: Grażyna Auguścik, Dorota Miśkiewicz, and Jorgos Skolias.

TRACKLIST

1. Bester Quartet - Der Weg Cum Glik
2. Bester Quartet - Nit Kajn Rozinkes
3. Bester Quartet - Klejner Wolkn
4. Bester Quartet - Grzech
5. Bester Quartet - Cygajner Lid
6. Bester Quartet - Ich Ganwe In Der Nacht
7. Bester Quartet - Kinder Jorn
8. Bester Quartet - Jidn Szmidn
9. Bester Quartet - Josl-ber
10. Bester Quartet - Mach Cu Di Ejgelech

foobar2000 1.6.2 / Dynamic Range Meter 1.1.1
log date: 2020-12-14 19:04:03

––––––––––––––––––––––––––––––––––––––––
Analyzed: Bester Quartet / Bajgelman. Get To Tango
––––––––––––––––––––––––––––––––––––––––

DR Peak RMS Duration Track
––––––––––––––––––––––––––––––––––––––––
DR11 -1.21 dB -13.79 dB 2:24 01-Der Weg Cum Glik
DR11 -0.44 dB -14.84 dB 5:41 02-Nit Kajn Rozinkes
DR10 -1.17 dB -14.12 dB 5:26 03-Klejner Wolkn
DR10 -1.45 dB -13.90 dB 5:04 04-Grzech
DR12 -1.19 dB -15.39 dB 4:51 05-Cygajner Lid
DR10 -1.17 dB -12.46 dB 5:50 06-Ich Ganwe In Der Nacht
DR12 -0.45 dB -14.99 dB 6:31 07-Kinder Jorn
DR11 -0.71 dB -14.57 dB 7:12 08-Jidn Szmidn
DR10 -1.44 dB -13.24 dB 4:10 09-Josl-ber
DR11 -1.45 dB -14.26 dB 4:48 10-Mach Cu Di Ejgelech
––––––––––––––––––––––––––––––––––––––––

Number of tracks: 10
Official DR value: DR11

Samplerate: 44100 Hz
Channels: 2
Bits per sample: 24
Bitrate: 1567 kbps
Codec: FLAC
================================================================================



Thanks to the Original customer.