Please register here if you want to download anything!

If domain in your address bar is different from the list below
PLEASE LEAVE THAT SITE IMMEDIATELY
❗IT'S A DANGEROUS FAKE❗



Spicy Magazines for Men! ;-)

Beyoncé - The Lion King: The Gift (2019) [Official Digital Download]

Posted By: Pisulik
Beyoncé - The Lion King: The Gift (2019) [Official Digital Download]

Beyoncé - The Lion King: The Gift (2019)
FLAC (tracks) 24-bit/44.1 kHz | Time - 54:09 minutes | 613 MB
Studio Master, Official Digital Download | Artwork: Front cover

Following the appearance of the official soundtrack to the remake of "The Lion King" on the platforms, Beyoncé announced the release of its own album, dedicated to an animated film. The singer, voiced the lioness Nala, will release the album "The Lion King: The Gift".

The cover of The Gift features a pair of golden lions, one of which bites the other by the tail. In addition to Beyoncé, such giants of the industry as Kendrick Lamar, Childish Gambino (who got the role of Simba in the Lion King), 070 Shake, Farrell Williams, Wiz Kid and others participated in the recording of 14 tracks. JAY-Z and their daughter Beyoncé Blue Ivy Carter also appear in the tracklist: the singer's husband is listed in the performers of the song “Mood 4 Eva”, and Blue Ivy in Brown Skin Girl.

Beyoncé called her album "sound film". “This is a new way to tell a story,” said the singer. “I wanted to do more than just collect a collection of songs inspired by the film. It is a mixture of genres and collaborations that sound different. He was influenced by everything from R & B and pop to hip-hop and afro-beat. I wanted everyone to connect themselves in their own way with this storyline. ”

Tracklist:

[00:43] 1. James Earl Jones - balance (mufasa interlude)
[03:46] 2. Beyoncé - BIGGER
[00:46] 3. James Earl Jones - the stars (mufasa interlude)
[02:42] 4. Beyoncé - FIND YOUR WAY BACK
[00:13] 5. Chiwetel Ejiofor - uncle scar (scar interlude)
[02:35] 6. Tekno, Yemi Alade & Mr Eazi - DON'T JEALOUS ME
[00:16] 7. JD McCrary & Shahadi Wright Joseph - danger (young simba & young nala interlude)
[03:10] 8. Burna Boy - JA ARA E
[00:29] 9. JD McCrary & Chiwetel Ejiofor - run away (scar & young simba interlude)
[01:47] 10. Beyoncé & Kendrick Lamar - NILE
[00:53] 11. Billy Eichner, Seth Rogan & JD McCrary - new lesson (timon, pumbaa & young simba interlude)
[05:15] 12. Beyoncé, JAY-Z & Childish Gambino - MOOD 4 EVA
[00:08] 13. Beyoncé & Donald Glover - reunited (nala & simba interlude)
[02:32] 14. Salatiel, Pharrell Williams & Beyoncé - WATER
[04:08] 15. Beyonce, Saint JHN & WizKiD feat. Blue Ivy Carter - BROWN SKIN GIRL
[00:14] 16. Beyoncé - come home (nala interlude)
[03:18] 17. Tiwa Savage & Mr Eazi - KEYS TO THE KINGDOM
[00:31] 18. John Kani - follow me (rafiki interlude)
[03:42] 19. Beyoncé, Shatta Wale & Major Lazer - ALREADY
[00:45] 20. James Earl Jones - remember (mufasa interlude)
[03:39] 21. Beyoncé - OTHERSIDE
[00:18] 22. Beyoncé - war (nala interlude)
[04:19] 23. Tierra Whack, Beyonce & Moonchild Sanelly feat. Nija - MY POWER
[00:14] 24. Donald Glover & Chiwetel Ejiofor - surrender (simba & scar interlude)
[03:06] 25. 070 Shake & Jessie Reyez - SCAR
[00:42] 26. James Earl Jones, Alfre Woodard & Donald Glover - i'm home (mufasa, sarabi & simba interlude)
[04:37] 27. Beyoncé - SPIRIT (From Disney's "The Lion King")

foobar2000 1.3.7 / Dynamic Range Meter 1.1.1
log date: 2019-07-18 23:10:55

––––––––––––––––––––––––––––––––––––––––
Analyzed: 070 Shake / The Lion King: The Gift (1)
Beyonce / The Lion King: The Gift (2-12)
Billy Eichner / The Lion King: The Gift (13)
Burna Boy / The Lion King: The Gift (14)
Childish Gambino / The Lion King: The Gift (15)
Chiwetel Ejiofor / The Lion King: The Gift (16)
James Earl Jones / The Lion King: The Gift (17-20)
JD McCrary / The Lion King: The Gift (21-22)
John Kani / The Lion King: The Gift (23)
Salatiel / The Lion King: The Gift (24)
Tekno / The Lion King: The Gift (25)
Tierra Whack / The Lion King: The Gift (26)
Tiwa Savage / The Lion King: The Gift (27)
––––––––––––––––––––––––––––––––––––––––

DR Peak RMS Duration Track
––––––––––––––––––––––––––––––––––––––––
DR6 -0.01 dB -8.80 dB 3:07 25-SCAR
DR4 -0.01 dB -7.44 dB 3:46 02-BIGGER
DR5 0.00 dB -5.88 dB 2:42 04-FIND YOUR WAY BACK
DR6 -0.01 dB -8.66 dB 1:47 10-NILE
DR5 -0.01 dB -7.08 dB 4:32 12-MOOD 4 EVA
DR18 -1.52 dB -19.98 dB 0:09 13-reunited (nala & simba interlude)
DR6 -0.01 dB -8.15 dB 4:08 15-BROWN SKIN GIRL
DR13 -2.15 dB -18.59 dB 0:15 16-come home (nala interlude)
DR5 -0.01 dB -6.99 dB 3:43 19-ALREADY
DR6 -0.02 dB -8.38 dB 3:40 21-OTHERSIDE
DR9 -0.01 dB -13.09 dB 0:18 22-war (nala interlude)
DR5 -0.01 dB -8.42 dB 4:37 27-SPIRIT
DR14 -0.75 dB -21.21 dB 0:54 11-new lesson (timon, pumbaa & young simba interlude)
DR5 -0.01 dB -6.50 dB 3:10 08-JA ARA E
DR11 -0.06 dB -13.32 dB 0:14 24-surrender (simba & scar interlude)
DR9 -0.01 dB -12.49 dB 0:14 05-uncle scar (scar interlude)
DR13 -0.01 dB -16.52 dB 0:44 01-balance (mufasa interlude)
DR9 0.00 dB -12.83 dB 0:47 03-the stars (mufasa interlude)
DR12 -1.42 dB -17.78 dB 0:45 20-remember (mufasa interlude)
DR13 -1.49 dB -18.84 dB 0:43 26-i'm home (mufasa, sarabi & simba interlude)
DR11 -0.01 dB -15.30 dB 0:17 07-danger (young simba & young nala interlude)
DR8 -0.01 dB -15.86 dB 0:30 09-run away (scar & young simba interlude)
DR14 -0.01 dB -19.81 dB 0:31 18-follow me (rafiki interlude)
DR4 -0.01 dB -5.89 dB 2:33 14-WATER
DR4 -0.01 dB -5.52 dB 2:36 06-DON'T JEALOUS ME
DR4 0.00 dB -6.63 dB 4:20 23-MY POWER
DR4 -0.01 dB -6.69 dB 3:19 17-KEYS TO THE KINGDOM
––––––––––––––––––––––––––––––––––––––––

Number of tracks: 27
Official DR value: DR8

Samplerate: 44100 Hz
Channels: 2
Bits per sample: 24
Bitrate: 1530 kbps
Codec: FLAC
================================================================================


All thanks go to the original releaser