Bill Evans - Further Conversations With Myself (1967/2016) [Official Digital Download 24/192]

Posted By: Pisulik
Bill Evans - Further Conversations With Myself (1967/2016) [Official Digital Download 24/192]

Bill Evans - Further Conversations With Myself (1967/2016)
FLAC (tracks) 24-bit/192 kHz | Time - 35:08 minutes | 1,47 GB
Studio Master, Official Digital Download | Artwork: Front cover

For Bill Evans' second solo record of unaccompanied but overdubbed piano solos, he decided to simplify the concept used in Conversations with Myself (which had him playing three pianos) by only playing two this time. The program is brief, but Evans plays quite well throughout. In particular, his versions of Johnny Mandel's "Emily" and "Santa Claus Is Coming to Town" are most memorable. A thoughtful and (despite the overdubbing) spontaneous-sounding set of melodic music.

Tracklist:

01. Emily
02. Yesterdays
03. Santa Claus Is Coming To Town
04. Funny Man
05. The Shadow Of Your Smile
06. Little Lulu
07. Quiet Now

foobar2000 1.3.7 / Dynamic Range Meter 1.1.1
log date: 2018-01-15 01:37:58

––––––––––––––––––––––––––––––––––––––––
Analyzed: Bill Evans / Further Conversations With Myself
––––––––––––––––––––––––––––––––––––––––

DR Peak RMS Duration Track
––––––––––––––––––––––––––––––––––––––––
DR9 -0.22 dB -12.46 dB 4:55 01-Emily
DR10 -0.27 dB -13.11 dB 3:51 02-Yesterdays
DR10 -0.39 dB -13.60 dB 3:47 03-Santa Claus Is Coming To Town
DR10 -1.56 dB -13.89 dB 3:46 04-Funny Man
DR10 -1.70 dB -14.66 dB 8:04 05-The Shadow Of Your Smile
DR9 -1.45 dB -13.40 dB 2:52 06-Little Lulu
DR10 -0.68 dB -14.59 dB 7:53 07-Quiet Now
––––––––––––––––––––––––––––––––––––––––

Number of tracks: 7
Official DR value: DR10

Samplerate: 192000 Hz
Channels: 2
Bits per sample: 24
Bitrate: 5999 kbps
Codec: FLAC
================================================================================


All thanks go to the original releaser