Billy Cobham - The Atlantic Years 1973-1978 (2015) [Official Digital Download]

Posted By: Pisulik
Billy Cobham - The Atlantic Years 1973-1978 (2015) [Official Digital Download]

Billy Cobham - The Atlantic Years 1973-1978 (2015)
FLAC (tracks) 24-bit/44.1 kHz | Time - 357:52 minutes | 3,89 GB
Studio Master, Official Digital Download | Artwork: Front cover

The fully "Remastered Eight-Album Set Features" The Legendary Drummer's Output From Atlantic Records Offered For The First Time Since The '70s. At the dawn of the 1970s, Billy Cobham built his legend with his bandleader debut, Spectrum. Raw, daring and overflowing with adrenalin, the album topped the Billboard Jazz charts. Having played for Miles Davis, Horace Silver and Mose Allison, Billy Cobham had joined the legendary Mahavishnu Orchestra in 1971, before signing to Atlantic as a solo artist in 1973. Worshipped today as a titan of drumming, Billy Cobham's career is now in its fifth decade.

Celebrating the work of the legendary Jazz musician, Rhino will release the 8-album set: BILLY COBHAM: „The Atlantic Years 1973-1978“ features:

The set includes two rare outtakes, “All 4 One” from the 1973 Spectrum sessions, and “Neu Rock 'n' Roll” from the 1975 A Funky Thide Of Sings sessions. Also included are the “Stratus” single edit in mono and stereo from Spectrum, the “Crosswind/Le Lis” single from Crosswinds, the “Moon Germs” single from Total Eclipse and the “Do What Cha Wanna/Hip Pockets” single from the Live On Tour In Europe (With George Duke) album.

The set features collaborations with fellow '70s fusion pioneers Jan Hammer, Tommy Bolin, John Abercrombie, John Williams, Randy Brecker, Michael Brecker, Cornell Dupree, John Scofield and Alphonso Johnson.

Tracklist:

CD1

01. Quadrant 4 (2015 Remastered)
02. Searching For The Right Door (2015 Remastered)
03. Spectrum (2015 Remastered)
04. Anxiety (2015 Remastered)
05. Taurian Matador (2015 Remastered)
06. Stratus (2015 Remastered)
07. To The Women In My Life (2015 Remastered)
08. Le Lis (2015 Remastered)
09. Snoopy's Search (2015 Remastered)
10. Red Baron (2015 Remastered)
11. All 4 One (Outtake) [2015 Remastered]
12. Stratus - Pt. I (Mono) [2015 Remastered]
13. Stratus - Pt. I (Stereo) [2015 Remastered]
14. Stratus - Pt. II (Stereo) [2015 Remastered]

foobar2000 1.3.7 / Dynamic Range Meter 1.1.1
log date: 2018-02-20 07:22:17

––––––––––––––––––––––––––––––––––––––––
Analyzed: Billy Cobham / The Atlantic Years 1973-1978
––––––––––––––––––––––––––––––––––––––––

DR Peak RMS Duration Track
––––––––––––––––––––––––––––––––––––––––
DR11 -1.32 dB -13.83 dB 4:20 01-Quadrant 4 (2015 Remastered)
DR15 -1.79 dB -23.61 dB 1:24 02-Searching For The Right Door (2015 Remastered)
DR10 -1.04 dB -14.02 dB 5:09 03-Spectrum (2015 Remastered)
DR14 -1.40 dB -21.34 dB 1:42 04-Anxiety (2015 Remastered)
DR9 -1.06 dB -11.92 dB 3:05 05-Taurian Matador (2015 Remastered)
DR10 -1.21 dB -14.59 dB 9:48 06-Stratus (2015 Remastered)
DR12 -6.12 dB -25.08 dB 0:51 07-To The Women In My Life (2015 Remastered)
DR12 -1.37 dB -15.45 dB 3:20 08-Le Lis (2015 Remastered)
DR12 -7.24 dB -24.31 dB 1:02 09-Snoopy's Search (2015 Remastered)
DR11 -1.20 dB -15.17 dB 6:41 10-Red Baron (2015 Remastered)
DR9 -0.14 dB -12.19 dB 4:13 11-All 4 One (Outtake) [2015 Remastered]
DR11 -1.36 dB -13.65 dB 3:29 12-Stratus Pt I (Mono) [2015 Remastered]
DR11 -1.39 dB -13.86 dB 3:30 13-Stratus Pt I (Stereo) [2015 Remastered]
DR11 -1.38 dB -14.12 dB 3:03 14-Stratus Pt II (Stereo) [2015 Remastered]
––––––––––––––––––––––––––––––––––––––––

Number of tracks: 14
Official DR value: DR11

Samplerate: 44100 Hz
Channels: 2
Bits per sample: 24
Bitrate: 1499 kbps
Codec: FLAC
================================================================================


CD 2

01. Spanish Moss - A Sound Portrait (2015 Remastered)
02. The Pleasant Pheasant (2015 Remastered)
03. Heather (2015 Remastered)
04. Crosswind (2015 Remastered)
05. Crosswind (2015 Remastered)
06. Le Lis (2015 Remastered)

foobar2000 1.3.7 / Dynamic Range Meter 1.1.1
log date: 2018-02-20 07:26:17

––––––––––––––––––––––––––––––––––––––––
Analyzed: Billy Cobham / The Atlantic Years 1973-1978
––––––––––––––––––––––––––––––––––––––––

DR Peak RMS Duration Track
––––––––––––––––––––––––––––––––––––––––
DR12 -1.13 dB -16.42 dB 17:37 01-Spanish Moss A Sound Portrait (2015 Remastered)
DR10 -1.32 dB -13.66 dB 5:18 02-The Pleasant Pheasant (2015 Remastered)
DR14 -4.86 dB -24.27 dB 8:38 03-Heather (2015 Remastered)
DR11 -1.39 dB -14.89 dB 3:46 04-Crosswind (2015 Remastered)
DR11 -1.44 dB -15.20 dB 2:42 05-Crosswind (2015 Remastered)
DR11 -1.38 dB -14.71 dB 3:22 06-Le Lis (2015 Remastered)
––––––––––––––––––––––––––––––––––––––––

Number of tracks: 6
Official DR value: DR11

Samplerate: 44100 Hz
Channels: 2
Bits per sample: 24
Bitrate: 1488 kbps
Codec: FLAC
================================================================================


CD 3

01. Solarization: Solarization / Second Phase / Crescent Sun / Voyage / Solarization - Recapitulation (2015 Remastered)
02. Lunarputians (2015 Remastered)
03. Total Eclipse (2015 Remastered)
04. Bandits (2015 Remastered)
05. Moon Germs (2015 Remastered)
06. The Moon Ain't Made Of Green Cheese (2015 Remastered)
07. Sea Of Tranquility (2015 Remastered)
08. Last Frontier (2015 Remastered)
09. Moon Germs (2015 Remastered)

foobar2000 1.3.7 / Dynamic Range Meter 1.1.1
log date: 2018-02-20 07:29:33

––––––––––––––––––––––––––––––––––––––––
Analyzed: Billy Cobham / The Atlantic Years 1973-1978
––––––––––––––––––––––––––––––––––––––––

DR Peak RMS Duration Track
––––––––––––––––––––––––––––––––––––––––
DR10 -1.28 dB -15.39 dB 11:10 01-Solarization Solarization Second Phase Crescent Sun Voyage Solarization Recapitulation (2015 Remastered)
DR12 -1.25 dB -15.14 dB 2:32 02-Lunarputians (2015 Remastered)
DR11 -1.18 dB -14.87 dB 5:58 03-Total Eclipse (2015 Remastered)
DR12 -1.39 dB -15.95 dB 2:32 04-Bandits (2015 Remastered)
DR11 -1.33 dB -13.76 dB 4:56 05-Moon Germs (2015 Remastered)
DR14 -6.78 dB -23.88 dB 0:58 06-The Moon Ain't Made Of Green Cheese (2015 Remastered)
DR10 -0.78 dB -14.67 dB 10:44 07-Sea Of Tranquility (2015 Remastered)
DR14 -1.27 dB -20.66 dB 5:25 08-Last Frontier (2015 Remastered)
DR12 -0.31 dB -14.80 dB 2:55 09-Moon Germs (2015 Remastered)
––––––––––––––––––––––––––––––––––––––––

Number of tracks: 9
Official DR value: DR12

Samplerate: 44100 Hz
Channels: 2
Bits per sample: 24
Bitrate: 1541 kbps
Codec: FLAC
================================================================================


CD 4

01. Shabazz (Live in Europe) [2015 Remastered]
02. Taurian Matador (Live in Europe Revised) [2015 Remastered]
03. Red Baron (Live in Europe Revised) [2015 Remastered]
04. Tenth Pinn (Live in Europe) [2015 Remastered]

foobar2000 1.3.7 / Dynamic Range Meter 1.1.1
log date: 2018-02-20 07:32:43

––––––––––––––––––––––––––––––––––––––––
Analyzed: Billy Cobham / The Atlantic Years 1973-1978
––––––––––––––––––––––––––––––––––––––––

DR Peak RMS Duration Track
––––––––––––––––––––––––––––––––––––––––
DR12 -1.30 dB -16.90 dB 13:48 01-Shabazz (Live in Europe) [2015 Remastered]
DR11 -1.04 dB -15.19 dB 5:30 02-Taurian Matador (Live in Europe Revised) [2015 Remastered]
DR11 -1.28 dB -15.40 dB 6:39 03-Red Baron (Live in Europe Revised) [2015 Remastered]
DR12 -1.27 dB -17.99 dB 14:01 04-Tenth Pinn (Live in Europe) [2015 Remastered]
––––––––––––––––––––––––––––––––––––––––

Number of tracks: 4
Official DR value: DR12

Samplerate: 44100 Hz
Channels: 2
Bits per sample: 24
Bitrate: 1505 kbps
Codec: FLAC
================================================================================


CD 5

01. Panhandler (2015 Remastered)
02. Sorcery (2015 Remastered)
03. A Funky Thide Of Sings (2015 Remastered)
04. Thinking Of You (2015 Remastered)
05. Some Skunk Funk (2015 Remastered)
06. Light At The End Of The Tunnel (2015 Remastered)
07. A Funky Kind Of Thing (2015 Remastered)
08. Moody Modes (2015 Remastered)
09. Neu Rock N' Roll (Outtake) [2015 Remastered]

foobar2000 1.3.7 / Dynamic Range Meter 1.1.1
log date: 2018-02-20 07:36:22

––––––––––––––––––––––––––––––––––––––––
Analyzed: Billy Cobham / The Atlantic Years 1973-1978
––––––––––––––––––––––––––––––––––––––––

DR Peak RMS Duration Track
––––––––––––––––––––––––––––––––––––––––
DR11 -1.38 dB -14.69 dB 4:06 01-Panhandler (2015 Remastered)
DR12 -1.35 dB -14.90 dB 2:24 02-Sorcery (2015 Remastered)
DR11 -1.49 dB -14.21 dB 3:38 03-A Funky Thide Of Sings (2015 Remastered)
DR11 -1.30 dB -14.87 dB 4:29 04-Thinking Of You (2015 Remastered)
DR11 -1.41 dB -14.53 dB 5:09 05-Some Skunk Funk (2015 Remastered)
DR12 -1.39 dB -15.82 dB 3:38 06-Light At The End Of The Tunnel (2015 Remastered)
DR14 -1.31 dB -18.91 dB 9:16 07-A Funky Kind Of Thing (2015 Remastered)
DR13 -1.26 dB -19.08 dB 12:16 08-Moody Modes (2015 Remastered)
DR10 -1.08 dB -13.28 dB 6:21 09-Neu Rock N' Roll (Outtake) [2015 Remastered]
––––––––––––––––––––––––––––––––––––––––

Number of tracks: 9
Official DR value: DR12

Samplerate: 44100 Hz
Channels: 2
Bits per sample: 24
Bitrate: 1575 kbps
Codec: FLAC
================================================================================


CD 6

01. Life & Times (2015 Remastered)
02. 29 (2015 Remastered)
03. Siesta / Wake Up / That's What I Said (2015 Remastered)
04. East Bay (2015 Remastered)
05. Earthlings (2015 Remastered)
06. Song For A Friend (Part I) [2015 Remastered]
07. On A Natural High (2015 Remastered)
08. Song For A Friend (Part II) [2015 Remastered]
09. Out Of Darkness (2015 Remastered)
10. It's You I Need

foobar2000 1.3.7 / Dynamic Range Meter 1.1.1
log date: 2018-02-20 07:43:44

––––––––––––––––––––––––––––––––––––––––
Analyzed: Billy Cobham / The Atlantic Years 1973-1978
––––––––––––––––––––––––––––––––––––––––

DR Peak RMS Duration Track
––––––––––––––––––––––––––––––––––––––––
DR9 -3.52 dB -15.45 dB 7:01 01-Life & Times (2015 Remastered)
DR11 -1.69 dB -15.18 dB 2:36 02-29 (2015 Remastered)
DR14 -3.31 dB -21.86 dB 3:59 03-Siesta Wake Up That's What I Said (2015 Remastered)
DR11 -1.26 dB -14.25 dB 6:08 04-East Bay (2015 Remastered)
DR10 -1.37 dB -13.83 dB 5:06 05-Earthlings (2015 Remastered)
DR15 -1.97 dB -22.43 dB 5:07 06-Song For A Friend (Part I) [2015 Remastered]
DR11 -1.35 dB -14.85 dB 5:18 07-On A Natural High (2015 Remastered)
DR15 -3.00 dB -22.13 dB 4:43 08-Song For A Friend (Part II) [2015 Remastered]
DR10 -1.34 dB -13.95 dB 3:19 09-Out Of Darkness (2015 Remastered)
DR12 -1.27 dB -16.69 dB 2:59 10-It's You I Need
––––––––––––––––––––––––––––––––––––––––

Number of tracks: 10
Official DR value: DR12

Samplerate: 44100 Hz
Channels: 2
Bits per sample: 24
Bitrate: 1541 kbps
Codec: FLAC
================================================================================


CD 7

01. Hip Pockets (2015 Remastered)
02. Ivory Tattoo (2015 Remastered)
03. Space Lady (2015 Remastered)
04. Almustafa The Beloved (2015 Remastered)
05. Do What Cha Wanna (2015 Remastered)
06. Frankenstein Goes To The Disco (2015 Remastered)
07. Sweet Wine (2015 Remastered)
08. Juicy (2015 Remastered)
09. Do What Cha Wanna (2015 Remastered)
10. Hip Pockets (2015 Remastered)

foobar2000 1.3.7 / Dynamic Range Meter 1.1.1
log date: 2018-02-20 07:52:00

––––––––––––––––––––––––––––––––––––––––
Analyzed: Billy Cobham / The Atlantic Years 1973-1978
––––––––––––––––––––––––––––––––––––––––

DR Peak RMS Duration Track
––––––––––––––––––––––––––––––––––––––––
DR14 -1.06 dB -17.82 dB 7:06 01-Hip Pockets (2015 Remastered)
DR12 -1.20 dB -16.55 dB 4:41 02-Ivory Tattoo (2015 Remastered)
DR15 -2.13 dB -22.89 dB 4:37 03-Space Lady (2015 Remastered)
DR12 -1.37 dB -18.40 dB 6:54 04-Almustafa The Beloved (2015 Remastered)
DR12 -1.31 dB -16.20 dB 4:35 05-Do What Cha Wanna (2015 Remastered)
DR16 -1.38 dB -21.14 dB 7:17 06-Frankenstein Goes To The Disco (2015 Remastered)
DR13 -1.31 dB -16.81 dB 3:54 07-Sweet Wine (2015 Remastered)
DR12 -1.43 dB -17.04 dB 7:23 08-Juicy (2015 Remastered)
DR12 -1.33 dB -15.87 dB 3:48 09-Do What Cha Wanna (2015 Remastered)
DR13 -1.34 dB -17.37 dB 5:10 10-Hip Pockets (2015 Remastered)
––––––––––––––––––––––––––––––––––––––––

Number of tracks: 10
Official DR value: DR13

Samplerate: 44100 Hz
Channels: 2
Bits per sample: 24
Bitrate: 1504 kbps
Codec: FLAC
================================================================================


CD 8

01. Inner Conflicts (2015 Remastered)
02. The Muffin Talks Back (2015 Remastered)
03. Nickels And Dimes (2015 Remastered)
04. El Barrio (2015 Remastered)
05. Arroyo (2015 Remastered)

foobar2000 1.3.7 / Dynamic Range Meter 1.1.1
log date: 2018-02-20 07:56:59

––––––––––––––––––––––––––––––––––––––––
Analyzed: Billy Cobham / The Atlantic Years 1973-1978
––––––––––––––––––––––––––––––––––––––––

DR Peak RMS Duration Track
––––––––––––––––––––––––––––––––––––––––
DR10 -0.92 dB -13.94 dB 10:42 01-Inner Conflicts (2015 Remastered)
DR10 -1.17 dB -13.76 dB 9:56 02-The Muffin Talks Back (2015 Remastered)
DR11 -0.69 dB -13.73 dB 7:23 03-Nickels And Dimes (2015 Remastered)
DR9 -1.22 dB -12.62 dB 6:34 04-El Barrio (2015 Remastered)
DR11 -1.03 dB -15.54 dB 4:20 05-Arroyo (2015 Remastered)
––––––––––––––––––––––––––––––––––––––––

Number of tracks: 5
Official DR value: DR10

Samplerate: 44100 Hz
Channels: 2
Bits per sample: 24
Bitrate: 1541 kbps
Codec: FLAC
================================================================================


All thanks go to the original releaser