Binker Golding - Abstractions of Reality Past and Incredible Feathers (2020) [Official Digital Download 24/96]

Posted By: pyatak
Binker Golding - Abstractions of Reality Past and Incredible Feathers (2020) [Official Digital Download 24/96]

Binker Golding - Abstractions of Reality Past and Incredible Feathers (2020) [Official Digital Download 24/96]
FLAC (tracks) 24-bit/96 kHz | Front Cover | Time - 46:51 minutes | 0,97 GB
Jazz | Label: Gearbox Records, Official Digital Download

Binker Golding truly is the saxophonist of the moment. A highly skilled musician, accomplished composer, and occasional conductor, Golding has performed with everyone from Moses Boyd and Yussef Dayes to Evan Parker and Denys Baptise. 'Abstractions of Reality Past and Incredible Feathers' is his first quartet album, and typically, it goes against the grain.

The album constitutes a departure from Binker's more rhythm and riff-heavy collaboration with Moses Boyd as well as his avant-garde project with Elliott Galvin. With all compositions and arrangements by the band leader, there is a greater emphasis on harmonic and melodic development, harking back to the more through-composed jazz fusion of the 80s and 90s. All tracks were recorded at the legendary Abbey Road Studios and mixed by James Farber, whose prolific discography includes albums by Brad Meldhau, Michael Brecker, and Joe Lovano. Expect a contemporary twist in the form of London jazz scene heavyweights; Joe Armon-Jones on piano, Daniel Casimir on double bass, and Sam Jones on drums.

Binker explains the inspiration behind the material: "The album is about experiences I had throughout my teenage years & twenties. It's about remembering, forgetting, thinking you've forgotten & remembering again. It's about people & friends that you'll never see again & times that you can't go back to, so you have to settle for the memory of them instead, whilst holding on to some hope for the future".

"Is Binker Golding the new Sonny Rollins? The new Coltrane? Or both?” (MOJO)

"Like those saxophone colossi whose respective roots lay in calypso and roadhouse R&B, Binker opts to shake hips first, stroke beards second." (Q)

"Exceptional" (Gilles Peterson)

"… A furiously inventive conversation between Sonny Rollins and broken beat." (Clash Magazine)

"Binker's keening melodic lines are as intricate and impressionistic as the title." (The Guardian)

TRACKLIST

1. Binker Golding - I Forgot Santa Monica
2. Binker Golding - Exquisite She-Green
3. Binker Golding - Skinned Alive, Tasting Blood
4. Binker Golding - … And I Like Your Feathers
5. Binker Golding - You, That Place, That Time
6. Binker Golding - Strange Beautiful Remembered
7. Binker Golding - Fluorescent Edges With Black

foobar2000 1.3.16 / Dynamic Range Meter 1.1.1
log date: 2020-05-25 12:51:12

––––––––––––––––––––––––––––––––––––––––
Analyzed: Binker Golding / Abstractions of Reality Past and Incredible Feathers
––––––––––––––––––––––––––––––––––––––––

DR Peak RMS Duration Track
––––––––––––––––––––––––––––––––––––––––
DR12 -0.66 dB -14.06 dB 5:29 01-I Forgot Santa Monica
DR14 -0.58 dB -16.36 dB 6:57 02-Exquisite She-Green
DR14 -0.64 dB -17.01 dB 6:48 03-Skinned Alive, Tasting Blood
DR13 -0.63 dB -17.22 dB 5:37 04-… And I Like Your Feathers
DR15 -0.65 dB -16.98 dB 7:45 05-You, That Place, That Time
DR13 -0.66 dB -15.90 dB 7:55 06-Strange Beautiful Remembered
DR12 -0.64 dB -14.50 dB 6:24 07-Fluorescent Edges With Black
––––––––––––––––––––––––––––––––––––––––

Number of tracks: 7
Official DR value: DR13

Samplerate: 96000 Hz
Channels: 2
Bits per sample: 24
Bitrate: 3082 kbps
Codec: FLAC
================================================================================



Thanks to the Original customer.