Bob Baldwin - Newurbanjazz 3 - An Urbansmooth Suite (Radio Edits) (2021) [Official Digital Download]

Posted By: pyatak
Bob Baldwin - Newurbanjazz 3 - An Urbansmooth Suite (Radio Edits) (2021) [Official Digital Download]

Bob Baldwin - Newurbanjazz 3 - An Urbansmooth Suite (Radio Edits) (2021) [Official Digital Download]
FLAC (tracks) 24-bit/44.1 kHz | Front Cover | Time - 35:52 minutes | 423 MB
Jazz | Label: City Sketches Records, Official Digital Download

Bob Baldwin’s 32nd studio offering is a musically unplanned birth that was caused by a simple procedure…Stay-at-home orders.

This latest Bob Baldwin recordings is a blend of Urban Music through a Jazz lens, this time featuring his touch as a vocal producer. Tracks by Lori Williams, LaRita Gaskins, Toni Redd, Monica Mason, GiGi Welling, Regina Trouxpe (all on vocals), also Ragan Whiteside, J-Fly, Tres Gilbert, Melvin Baldwin, Barry Danielian, Phil Hamilton, and more! Turn your bass up and get right with this groove.

TRACKLIST

1. Bob Baldwin - Funk in De Pocket (Radio Edit)
2. Bob Baldwin - Friday Night (Newurbanjazz Remix) (Radio Edit)
3. Bob Baldwin - Dance 3000 (Radio Edit)
4. Bob Baldwin - Lay Your Heart (Radio Edit)
5. Bob Baldwin - Every Moment (Newurbanjazz Remix) (Radio Edit)
6. Bob Baldwin - Sunday Afternoon (Radio Edit)
7. Bob Baldwin - Footsteps in the Dark (Radio Edit)
8. Bob Baldwin - Back to Basics (Family First) (Radio Edit)
9. Bob Baldwin - Stay Above the Fray (Radio Edit)

foobar2000 1.6.2 / Dynamic Range Meter 1.1.1
log date: 2021-06-11 13:27:43

––––––––––––––––––––––––––––––––––––––––
Analyzed: Bob Baldwin / Newurbanjazz 3 / An Urbansmooth Suite (Radio Edits)
––––––––––––––––––––––––––––––––––––––––

DR Peak RMS Duration Track
––––––––––––––––––––––––––––––––––––––––
DR8 -0.40 dB -10.10 dB 4:10 01-Funk in De Pocket (Radio Edit)
DR8 -0.40 dB -9.69 dB 3:47 02-Friday Night (Newurbanjazz Remix) (Radio Edit)
DR9 -0.39 dB -10.12 dB 3:42 03-Dance 3000 (Radio Edit)
DR7 -0.40 dB -9.06 dB 3:50 04-Lay Your Heart (Radio Edit)
DR8 0.00 dB -9.54 dB 4:05 05-Every Moment (Newurbanjazz Remix) (Radio Edit)
DR7 -0.40 dB -8.85 dB 4:05 06-Sunday Afternoon (Radio Edit)
DR8 -0.39 dB -9.72 dB 4:09 07-Footsteps in the Dark (Radio Edit)
DR8 0.00 dB -8.82 dB 4:03 08-Back to Basics (Family First) (Radio Edit)
DR8 -0.75 dB -10.73 dB 4:08 09-Stay Above the Fray (Radio Edit)
––––––––––––––––––––––––––––––––––––––––

Number of tracks: 9
Official DR value: DR8

Samplerate: 44100 Hz
Channels: 2
Bits per sample: 24
Bitrate: 1605 kbps
Codec: FLAC
================================================================================



Thanks to the Original customer.