Tags
Language
Tags

Bobby Patterson - It's Just a Matter of Time (1972/2017) [Official Digital Download]

Posted By:
Bobby Patterson - It's Just a Matter of Time (1972/2017) [Official Digital Download]

Bobby Patterson - It's Just a Matter of Time (1972/2017)
FLAC (tracks) 24-bit/44.1 kHz | Time - 34:43 minutes | 370 MB
Studio Master, Official Digital Download | Artwork: Front cover

Like many other Dallas-based rhythm & blues musicians, Bobby Patterson is a vocalist and multi-instrumentalist who continued the deep soul tradition of people like Otis Redding, Joe Tex, and Wilson Pickett. But unlike some of these other singers, Patterson has worked in all aspects of the record business: as a songwriter, producer, promotion man, and label owner. Rare and famous this 1972 disc from overlooked Texas soul man Patterson has a bit of everything, gliding freely between easy soul (“Recipe for Peace”) and down-home funk. Check out “How Do You Spell Love” though, a cool, mid-tempo groover. Then there’s “Right On Jody“, another , funky soul cut. And then there’s “This Whole Funky World Is a Ghetto” – which isn’t quite as nice as it sounds but vaguely lives up to its potential.

Tracklist:

01. If You Took a Survey
02. I Get My Groove from You
03. Make Sure You Can Handle It
04. Everything Good to You (Don't Have to Be Good for You)
05. How Do You Spell Love
06. Recipe for Peace
07. Quiet! Do Not Disturb
08. She Don't Have to See You (To See Through You)
09. Right on Jody
10. I Just Loved You Because I Wanted To
11. One Ounce of Prevention
12. This Whole Funky World is a Ghetto

foobar2000 1.3.7 / Dynamic Range Meter 1.1.1
log date: 2017-12-30 04:49:08

––––––––––––––––––––––––––––––––––––––––
Analyzed: Bobby Patterson / It's Just a Matter of Time
––––––––––––––––––––––––––––––––––––––––

DR Peak RMS Duration Track
––––––––––––––––––––––––––––––––––––––––
DR10 -1.18 dB -10.65 dB 2:39 01-If You Took a Survey
DR10 -1.18 dB -11.75 dB 3:26 02-I Get My Groove from You
DR9 -1.18 dB -11.24 dB 2:44 03-Make Sure You Can Handle It
DR9 -1.18 dB -11.74 dB 2:57 04-Everything Good to You (Don't Have to Be Good for You)
DR10 -1.18 dB -12.22 dB 2:21 05-How Do You Spell Love
DR10 -1.18 dB -11.91 dB 3:18 06-Recipe for Peace
DR9 -1.18 dB -12.22 dB 2:00 07-Quiet! Do Not Disturb
DR9 -1.18 dB -10.96 dB 3:24 08-She Don't Have to See You (To See Through You)
DR10 -1.18 dB -13.42 dB 3:07 09-Right on Jody
DR11 -1.18 dB -12.26 dB 2:24 10-I Just Loved You Because I Wanted To
DR10 -1.18 dB -12.97 dB 2:59 11-One Ounce of Prevention
DR8 -1.18 dB -11.85 dB 3:24 12-This Whole Funky World is a Ghetto
––––––––––––––––––––––––––––––––––––––––

Number of tracks: 12
Official DR value: DR10

Samplerate: 44100 Hz
Channels: 2
Bits per sample: 24
Bitrate: 1492 kbps
Codec: FLAC
================================================================================


All thanks go to the original releaser