Brett Young - Weekends Look A Little Different These Days (2021) [Official Digital Download]

Posted By: pyatak
Brett Young - Weekends Look A Little Different These Days (2021) [Official Digital Download]

Brett Young - Weekends Look A Little Different These Days (2021) [Official Digital Download]
FLAC (tracks) 24-bit/48 kHz | Front Cover | Time - 25:39 minutes | 329 MB
Country | Label: BMX, Official Digital Download

Brett Young is celebrating his evolving world with brand new music this spring, preparing to drop Weekends Look a Little Different These Days on June 4.

Touching on everything from becoming a father to the lifestyle shifts brought on by the pandemic, eight fresh tracks are said to explore “love, family, loss and everything in between.” Young reportedly co-wrote the entire project, which was produced by Dann Huff (Keith Urban, Thomas Rhett) and features his seventh consecutive Number One hit, “Lady.” And it also includes his newly released anthem, “Not Yet.”

TRACKLIST

1. Brett Young - Weekends Look A Little Different These Days
2. Brett Young - Lady
3. Brett Young - This
4. Brett Young - Dear Me
5. Brett Young - Leave Me Alone
6. Brett Young - Not Yet
7. Brett Young - You Got Away With It
8. Brett Young - You Didn’t

foobar2000 1.6.2 / Dynamic Range Meter 1.1.1
log date: 2021-06-08 05:59:29

––––––––––––––––––––––––––––––––––––––––
Analyzed: Brett Young / Weekends Look A Little Different These Days
––––––––––––––––––––––––––––––––––––––––

DR Peak RMS Duration Track
––––––––––––––––––––––––––––––––––––––––
DR7 -0.29 dB -8.44 dB 3:04 01-Weekends Look A Little Different These Days
DR7 -0.30 dB -9.42 dB 3:14 02-Lady
DR7 -0.29 dB -8.69 dB 2:54 03-This
DR7 -0.29 dB -8.90 dB 3:40 04-Dear Me
DR7 -0.30 dB -9.09 dB 3:03 05-Leave Me Alone
DR7 -0.29 dB -8.61 dB 2:54 06-Not Yet
DR7 -0.29 dB -8.53 dB 3:03 07-You Got Away With It
DR7 -0.30 dB -8.82 dB 3:46 08-You Didn’t
––––––––––––––––––––––––––––––––––––––––

Number of tracks: 8
Official DR value: DR7

Samplerate: 48000 Hz
Channels: 2
Bits per sample: 24
Bitrate: 1675 kbps
Codec: FLAC
================================================================================



Thanks to the Original customer.