Brodsky Quartet - Beethoven: Late String Quartets (2020) [Official Digital Download 24/96]

Posted By: SERTiL
Brodsky Quartet - Beethoven: Late String Quartets (2020) [Official Digital Download 24/96]

Brodsky Quartet - Beethoven: Late String Quartets (2020)
FLAC (tracks) 24-bit/96 kHz | Time - 230:00 minutes | 3.95 GB
Studio Master, Official Digital Download | Artwork: Digital Booklet

The late quartets of Beethoven are renowned as the pinnacle of his output, and stand among the greatest compositions of all time. The Brodsky Quartet’s keenly anticipated recording celebrates the Beethoven year.

Tracklist:
01. String Quartet No. 11 in F Minor, Op. 95 "Serioso": I. Allegro con brio (4:27)
02. String Quartet No. 11 in F Minor, Op. 95 "Serioso": II. Allegretto ma non troppo (7:59)
03. String Quartet No. 11 in F Minor, Op. 95 "Serioso": III. Allegro assai vivace ma serioso (4:35)
04. String Quartet No. 11 in F Minor, Op. 95 "Serioso": IV. Larghetto espressivo. Allegretto agitato (5:12)
05. String Quartet No. 13 in B-Flat Major, Op. 130: I. Adagio ma non troppo. Allegro (13:09)
06. String Quartet No. 13 in B-Flat Major, Op. 130: II. Presto (2:00)
07. String Quartet No. 13 in B-Flat Major, Op. 130: III. Andante con moto ma non troppo (7:02)
08. String Quartet No. 13 in B-Flat Major, Op. 130: IV. Alla danza tedesca. Allegro assai (3:12)
09. String Quartet No. 13 in B-Flat Major, Op. 130: V. Cavatina. Adagio molto espressivo (7:41)
10. String Quartet No. 13 in B-Flat Major, Op. 130: VI. Finale. Allegro (9:43)
11. Große Fuge, Op. 133 (15:03)
12. String Quartet No. 12 in E-Flat Major, Op. 127: I. Maestoso. Allegro (6:47)
13. String Quartet No. 12 in E-Flat Major, Op. 127: II. Adagio ma non troppo e molto cantabile (16:56)
14. String Quartet No. 12 in E-Flat Major, Op. 127: III. Scherzando vivace (8:42)
15. String Quartet No. 12 in E-Flat Major, Op. 127: IV. Finale. Allegro (7:22)
16. String Quartet No. 14 in C-Sharp Minor, Op. 131: I. Adagio ma non troppo e molto espressivo (7:23)
17. String Quartet No. 14 in C-Sharp Minor, Op. 131: II. Allegro molto vivace (2:58)
18. String Quartet No. 14 in C-Sharp Minor, Op. 131: III. Allegro moderato (0:42)
19. String Quartet No. 14 in C-Sharp Minor, Op. 131: IV. Andante ma non troppo e molto cantabile (14:29)
20. String Quartet No. 14 in C-Sharp Minor, Op. 131: V. Presto (4:46)
21. String Quartet No. 14 in C-Sharp Minor, Op. 131: VI. Adagio quasi un poco andante (2:23)
22. String Quartet No. 14 in C-Sharp Minor, Op. 131: VII. Allegro. Poco adagio (6:04)
23. String Quartet No. 15 in A Minor, Op. 132 "Heiliger Dankgesang": I. Assai sostenuto. Allegro (9:48)
24. String Quartet No. 15 in A Minor, Op. 132 "Heiliger Dankgesang": II. Allegro ma non tanto (8:58)
25. String Quartet No. 15 in A Minor, Op. 132 "Heiliger Dankgesang": III. Molto adagio. Andante (19:44)
26. String Quartet No. 15 in A Minor, Op. 132 "Heiliger Dankgesang": IV. Alla marcia, assai vivace (2:02)
27. String Quartet No. 15 in A Minor, Op. 132 "Heiliger Dankgesang": V. Allegro appassionato (6:40)
28. String Quartet No. 16 in F Major, Op. 135: I. Allegretto (6:20)
29. String Quartet No. 16 in F Major, Op. 135: II. Vivace (3:18)
30. String Quartet No. 16 in F Major, Op. 135: III. Lento assai, cantante e tranquillo (8:12)
31. String Quartet No. 16 in F Major, Op. 135: IV. Grave, ma non troppo tratto. Allegro (6:38)

foobar2000 1.3.7 / Dynamic Range Meter 1.1.1
log date: 2019-12-24 18:30:49

––––––––––––––––––––––––––––––––––––––––
Analyzed: Brodsky Quartet / Beethoven: Late String Quartets
––––––––––––––––––––––––––––––––––––––––

DR Peak RMS Duration Track
––––––––––––––––––––––––––––––––––––––––
DR13 -2.77 dB -21.54 dB 4:27 01-String Quartet No. 11 in F Minor, Op. 95 "Serioso": I. Allegro con brio
DR15 -6.31 dB -27.53 dB 7:59 02-String Quartet No. 11 in F Minor, Op. 95 "Serioso": II. Allegretto ma non troppo
DR14 -1.36 dB -20.77 dB 4:35 03-String Quartet No. 11 in F Minor, Op. 95 "Serioso": III. Allegro assai vivace ma serioso
DR15 -1.92 dB -22.60 dB 5:12 04-String Quartet No. 11 in F Minor, Op. 95 "Serioso": IV. Larghetto espressivo. Allegretto agitato
DR15 -3.06 dB -24.32 dB 13:09 05-String Quartet No. 13 in B-Flat Major, Op. 130: I. Adagio ma non troppo. Allegro
DR14 -4.91 dB -23.89 dB 2:00 06-String Quartet No. 13 in B-Flat Major, Op. 130: II. Presto
DR18 -2.62 dB -27.17 dB 7:02 07-String Quartet No. 13 in B-Flat Major, Op. 130: III. Andante con moto ma non troppo
DR14 -6.64 dB -25.87 dB 3:12 08-String Quartet No. 13 in B-Flat Major, Op. 130: IV. Alla danza tedesca. Allegro assai
DR14 -12.52 dB -33.27 dB 7:41 09-String Quartet No. 13 in B-Flat Major, Op. 130: V. Cavatina. Adagio molto espressivo
DR15 -0.97 dB -23.31 dB 9:43 10-String Quartet No. 13 in B-Flat Major, Op. 130: VI. Finale. Allegro
DR14 -0.77 dB -20.52 dB 15:03 11-Große Fuge, Op. 133
DR16 -0.86 dB -22.40 dB 6:47 12-String Quartet No. 12 in E-Flat Major, Op. 127: I. Maestoso. Allegro
DR14 -8.95 dB -28.67 dB 16:56 13-String Quartet No. 12 in E-Flat Major, Op. 127: II. Adagio ma non troppo e molto cantabile
DR15 -3.38 dB -22.99 dB 8:42 14-String Quartet No. 12 in E-Flat Major, Op. 127: III. Scherzando vivace
DR14 -0.90 dB -22.91 dB 7:22 15-String Quartet No. 12 in E-Flat Major, Op. 127: IV. Finale. Allegro
DR13 -8.14 dB -27.71 dB 7:23 16-String Quartet No. 14 in C-Sharp Minor, Op. 131: I. Adagio ma non troppo e molto espressivo
DR14 -6.47 dB -24.65 dB 2:58 17-String Quartet No. 14 in C-Sharp Minor, Op. 131: II. Allegro molto vivace
DR13 -7.41 dB -25.83 dB 0:42 18-String Quartet No. 14 in C-Sharp Minor, Op. 131: III. Allegro moderato
DR19 -3.02 dB -27.27 dB 14:29 19-String Quartet No. 14 in C-Sharp Minor, Op. 131: IV. Andante ma non troppo e molto cantabile
DR15 -0.95 dB -24.01 dB 4:46 20-String Quartet No. 14 in C-Sharp Minor, Op. 131: V. Presto
DR14 -10.93 dB -33.25 dB 2:23 21-String Quartet No. 14 in C-Sharp Minor, Op. 131: VI. Adagio quasi un poco andante
DR14 -2.23 dB -20.89 dB 6:04 22-String Quartet No. 14 in C-Sharp Minor, Op. 131: VII. Allegro. Poco adagio
DR17 -1.00 dB -24.65 dB 9:48 23-String Quartet No. 15 in A Minor, Op. 132 "Heiliger Dankgesang": I. Assai sostenuto. Allegro
DR15 -6.08 dB -25.56 dB 8:58 24-String Quartet No. 15 in A Minor, Op. 132 "Heiliger Dankgesang": II. Allegro ma non tanto
DR17 -4.82 dB -28.57 dB 19:44 25-String Quartet No. 15 in A Minor, Op. 132 "Heiliger Dankgesang": III. Molto adagio. Andante
DR15 -2.84 dB -22.88 dB 2:02 26-String Quartet No. 15 in A Minor, Op. 132 "Heiliger Dankgesang": IV. Alla marcia, assai vivace
DR14 -2.40 dB -22.58 dB 6:40 27-String Quartet No. 15 in A Minor, Op. 132 "Heiliger Dankgesang": V. Allegro appassionato
DR16 -2.77 dB -25.45 dB 6:20 28-String Quartet No. 16 in F Major, Op. 135: I. Allegretto
DR13 -3.42 dB -22.50 dB 3:18 29-String Quartet No. 16 in F Major, Op. 135: II. Vivace
DR13 -10.36 dB -30.64 dB 8:12 30-String Quartet No. 16 in F Major, Op. 135: III. Lento assai, cantante e tranquillo
DR15 -0.89 dB -22.08 dB 6:38 31-String Quartet No. 16 in F Major, Op. 135: IV. Grave, ma non troppo tratto. Allegro
––––––––––––––––––––––––––––––––––––––––

Number of tracks: 31
Official DR value: DR15

Samplerate: 96000 Hz
Channels: 2
Bits per sample: 24
Bitrate: 2483 kbps
Codec: FLAC
================================================================================