Cage the Elephant - Social Cues (2019) [Official Digital Download]

Posted By: SERTiL
Cage the Elephant - Social Cues (2019) [Official Digital Download]

Cage the Elephant - Social Cues (2019)
FLAC (tracks) 24-bit/48 kHz | Time - 44:29 minutes | 572 MB
Studio Master, Official Digital Download | Artwork: Front Cover

On Social Cues, Matt Shultz tries to make sense of a tumultuous time in his life. The Cage the Elephant frontman not only went through a divorce but also lost two of his best friends to suicide during the recording of the band's fifth full-length album. But rather than dwell on his tragic circumstances, Shultz focused on the positives that tend to get dismissed during periods of personal turmoil. “I think there’s the temptation, when you’re going through a tough time, to get stuck in the melodrama of things and be like, ‘Oh, I’m going to write a sad song and it’s just going to explain exactly where I’m at,'” Shultz said in an interview with Beats 1. “You miss out on other notes and colours of life that are so important.”

Cage the Elephant is no stranger to challenging the current rock landscape—their offbeat, genre-hopping approach culminated in the psychedelic-meets-glam rock of 2015’s Tell Me I’m Pretty (which earned them a Best Rock Album Grammy in 2017). Likewise, on Social Cues, they navigate through different periods of rock history alongside a spooky ambient mood inspired by the horror movie soundtracks of John Carpenter. In “House of Glass,” Shultz combats his paranoid thoughts over visceral garage punk, while on the flip side, the strings-laced “Love’s the Only Way” is a tender ballad where he reflects on his mistakes. He juxtaposes these melancholic sentiments with swagger, exhibiting showmanship over synth-driven grooves (“Skin and Bones”) and stomping blues rock (“The War Is Over).”

Thanks to the savvy intuition of his brother, Cage guitarist Brad Shultz—and unbeknownst to anyone else in the band—the reggae-rap fusion of “Night Running” got some help from Beck: “One morning, I receive a text message that says, 'Here’s a couple of verses that Beck put down.' And I said, 'Huh?' He was like, ‘I have five other options in case these don’t work for you.' And we’re like, ‘No, this is good!'”

“Goodbye” sends off Social Cues on a solemn note. It’s the rare moment when Shultz puts himself front and centre, accepting that it’s time for a relationship to come to an end. “I actually see it as an uplifting song,” he said, “but I find it really interesting that sometimes when we’re confronted with such profound truth we interpret it as darkness. I think the most obvious challenge is trying to find something within the music that reignites that excitement, that passion, that excitement for music again.”

Tracklist:
1. Cage the Elephant – Broken Boy (02:43)
2. Cage the Elephant – Social Cues (03:39)
3. Cage the Elephant – Black Madonna (03:46)
4. Cage the Elephant & Beck – Night Running (03:28)
5. Cage the Elephant – Skin and Bones (03:16)
6. Cage the Elephant – Ready to Let Go (03:07)
7. Cage the Elephant – House of Glass (02:34)
8. Cage the Elephant – Love's the Only Way (04:00)
9. Cage the Elephant – The War Is Over (03:15)
10. Cage the Elephant – Dance Dance (03:10)
11. Cage the Elephant – What I'm Becoming (03:50)
12. Cage the Elephant – Tokyo Smoke (03:25)
13. Cage the Elephant – Goodbye (04:16)

foobar2000 1.3.7 / Dynamic Range Meter 1.1.1
log date: 2019-04-19 01:08:21

––––––––––––––––––––––––––––––––––––––––
Analyzed: Cage The Elephant / Social Cues
––––––––––––––––––––––––––––––––––––––––

DR Peak RMS Duration Track
––––––––––––––––––––––––––––––––––––––––
DR4 -0.20 dB -5.64 dB 2:43 01-Broken Boy
DR3 -0.19 dB -5.21 dB 3:39 02-Social Cues
DR3 -0.20 dB -4.62 dB 3:47 03-Black Madonna
DR3 -0.21 dB -4.71 dB 3:28 04-Night Running
DR4 -0.19 dB -5.54 dB 3:16 05-Skin and Bones
DR5 -0.20 dB -6.09 dB 3:08 06-Ready To Let Go
DR4 -0.20 dB -4.73 dB 2:35 07-House Of Glass
DR5 -0.30 dB -7.75 dB 4:01 08-Love's The Only Way
DR4 -0.19 dB -5.36 dB 3:16 09-The War Is Over
DR4 -0.21 dB -5.14 dB 3:10 10-Dance Dance
DR4 -0.20 dB -5.47 dB 3:50 11-What I'm Becoming
DR4 -0.21 dB -5.48 dB 3:26 12-Tokyo Smoke
DR3 -0.20 dB -5.88 dB 4:16 13-Goodbye
––––––––––––––––––––––––––––––––––––––––

Number of tracks: 13
Official DR value: DR4

Samplerate: 48000 Hz
Channels: 2
Bits per sample: 24
Bitrate: 1623 kbps
Codec: FLAC
================================================================================


Thanks to the Original customer.