Carla Bley, Andy Sheppard, Steve Swallow - Life Goes On (2020) [Official Digital Download 24/96]

Posted By: SERTiL
Carla Bley, Andy Sheppard, Steve Swallow - Life Goes On (2020) [Official Digital Download 24/96]

Carla Bley, Andy Sheppard, Steve Swallow - Life Goes On (2020)
FLAC (tracks) 24-bit/96 kHz | Time - 56:39 minutes | 942 MB
Studio Master, Official Digital Download | Artwork: Digital Booklet

A striking album of new music from pianist/composer Carla Bley, whose trio with Andy Sheppard and Steve Swallow is now in its 25th year.

Individual associations among the players go back much further: bassist Swallow first recorded music by Carla in 1961. So when Bley says "Life Goes On", a lot of life is alluded to. Following two other trio albums for ECM, Trios (2013) and Andando el Tiempo (2016), this recording, realized in the Auditorio Stelio Molo Studio in Lugano in May 2019, with Manfred Eicher producing, takes the form of three suites.

The title piece begins as a stoical blues, at first melancholic then hopeful. "Beautiful Telephones", inspired by a US president's first observation on entering the Oval Office, has plenty of Bley's dark wit. And "Copycat" explores the notion of call-and-response in fresh ways as the improvisers continue each other's thoughts. Throughout, Carla's distinctive piano, with its hints of Monk and Satie, is beautifully framed by Swallow's eloquent, elegant bass guitar and Sheppard's yearning saxes. This trio has a unique collective sound, reflecting - as The Telegraph recently noted "musical mastery of a rare order".

"Carla Bley is not just one of jazz history's most iconoclastic figures; she is also capable of turning the most moribund of topics into a cause for celebration " The Times

Tracklist:
1. Life Goes On: Life Goes On (6:00)
2. Life Goes On: On (4:47)
3. Life Goes On: And On (4:10)
4. Life Goes On: And Then One Day (9:03)
5. Beautiful Telephones (Pt. 1) (4:36)
6. Beautiful Telephones (Pt. 2) (6:14)
7. Beautiful Telephones (Pt. 3) (6:16)
8. Copycat: After You (5:29)
9. Copycat: Follow The Leader (0:17)
10. Copycat: Copycat (9:52)

Personnel:
Carla Bley: (piano)
Andy Sheppard (tenor and soprano saxophones)
Steve Swallow: (bass)

foobar2000 1.3.7 / Dynamic Range Meter 1.1.1
log date: 2020-02-14 12:20:10

––––––––––––––––––––––––––––––––––––––––
Analyzed: Carla Bley / Life Goes On
––––––––––––––––––––––––––––––––––––––––

DR Peak RMS Duration Track
––––––––––––––––––––––––––––––––––––––––
DR12 -0.50 dB -16.29 dB 6:00 01-Life Goes On: Life Goes On
DR11 -2.06 dB -16.28 dB 4:47 02-Life Goes On: On
DR11 -0.50 dB -14.10 dB 4:10 03-Life Goes On: And On
DR11 -1.80 dB -15.77 dB 9:03 04-Life Goes On: And Then One Day
DR11 -3.56 dB -21.71 dB 4:36 05-Beautiful Telephones (Pt. 1)
DR11 -0.50 dB -13.51 dB 6:14 06-Beautiful Telephones (Pt. 2)
DR11 -0.50 dB -15.05 dB 6:16 07-Beautiful Telephones (Pt. 3)
DR10 -1.13 dB -16.02 dB 5:29 08-Copycat: After You
DR10 -6.54 dB -20.01 dB 0:17 09-Copycat: Follow The Leader
DR11 -0.50 dB -13.45 dB 9:52 10-Copycat: Copycat
––––––––––––––––––––––––––––––––––––––––

Number of tracks: 10
Official DR value: DR11

Samplerate: 96000 Hz
Channels: 2
Bits per sample: 24
Bitrate: 2354 kbps
Codec: FLAC
================================================================================


Thanks to the Original customer.