Tags
Language
Tags

Casares Brothers Trio & Joe Webb - The Music of Duke Ellington (2020) [Official Digital Download 24/96]

Posted By:
Casares Brothers Trio & Joe Webb - The Music of Duke Ellington (2020) [Official Digital Download 24/96]

Casares Brothers Trio & Joe Webb - The Music of Duke Ellington (2020) [Official Digital Download 24/96]
FLAC (tracks) 24-bit/96 kHz | Front Cover | Time - 25:29 minutes | 484 MB
Jazz | Label: The Changes, Official Digital Download

The body of work by Edward Kennedy Ellington, the Duke of music, it extends to more than 800 works according to Wynton Marsalis. He isn't just one of the most prolific composers of the 20th century but arguably the one that defines the sound of his era with more accuracy – the music he left though, is timeless. His style is far away from conventional, it is always creative and inventive, symphonic and humorous, rich but straight to the point. His presence in any history book should be taken for granted.

In this humble EP we can't avoid the almost 30-year collaboration he held with another brilliant mind, Billy Strayhorn. The music they produced together encompasses some of the most beautiful art ever.

This is our interpretation and little tribute to them. We hope you enjoy it. (Lluc Casares)

TRACKLIST

1. Casares Brothers Trio & Joe Webb - Rain Check
2. Casares Brothers Trio & Joe Webb - After All
3. Casares Brothers Trio & Joe Webb - Johnny Come Lately
4. Casares Brothers Trio & Joe Webb - Dual Highway
5. Casares Brothers Trio & Joe Webb - The Single Petal Of A Rose (Live)

foobar2000 1.3.16 / Dynamic Range Meter 1.1.1
log date: 2020-05-31 11:46:47

––––––––––––––––––––––––––––––––––––––––
Analyzed: Casares Brothers Trio & Joe Webb / The Music of Duke Ellington
––––––––––––––––––––––––––––––––––––––––

DR Peak RMS Duration Track
––––––––––––––––––––––––––––––––––––––––
DR9 -0.02 dB -11.06 dB 5:22 01-Rain Check
DR12 -0.02 dB -16.22 dB 4:43 02-After All
DR9 -0.02 dB -12.23 dB 4:58 03-Johnny Come Lately
DR10 -0.02 dB -12.35 dB 5:39 04-Dual Highway
DR12 -0.02 dB -17.47 dB 4:47 05-The Single Petal Of A Rose (Live)
––––––––––––––––––––––––––––––––––––––––

Number of tracks: 5
Official DR value: DR10

Samplerate: 96000 Hz
Channels: 2
Bits per sample: 24
Bitrate: 2240 kbps
Codec: FLAC
================================================================================



Thanks to the Original customer.