Tags
Language
Tags

Celeste - Compilation 1:1 (2019) [Official Digital Download]

Posted By: Pisulik
Celeste - Compilation 1:1 (2019) [Official Digital Download]

Celeste - Compilation 1:1 (2019)
FLAC (tracks) 24-bit/44.1 kHz | Time - 26:43 minutes | 271 MB
Studio Master, Official Digital Download | Artwork: Front cover

If you’re looking for a new favourite artist, look no further than Celeste. She’s a brilliant young singer from Brighton, England. Even though Celeste is in the early stages of her career, she has already made significant strides in the music industry. Her beautiful, chilling voice often complements her jazzy, soulful instrumentals, and has drawn comparisons to the likes of Amy Winehouse.

Tracklist:

01. Strange (Edit)
02. Celeste & Gotts Street Park - Both Sides Of The Moon
03. Celeste & Gotts Street Park - Lately
04. Father's Son
05. Celeste & Jeshi - Summer
06. Ugly Thoughts
07. Coco Blood

foobar2000 1.3.7 / Dynamic Range Meter 1.1.1
log date: 2019-12-09 00:47:40

––––––––––––––––––––––––––––––––––––––––
Analyzed: Céleste / Compilation 1.1
––––––––––––––––––––––––––––––––––––––––

DR Peak RMS Duration Track
––––––––––––––––––––––––––––––––––––––––
DR8 -0.32 dB -11.76 dB 3:18 01-Strange (Edit)
DR9 -0.32 dB -12.71 dB 4:14 02-Both Sides Of The Moon
DR10 -0.32 dB -12.70 dB 4:12 03-Lately
DR7 -0.30 dB -8.84 dB 3:16 04-Father's Son
DR8 -0.32 dB -11.46 dB 3:44 05-Summer
DR8 -0.32 dB -12.07 dB 4:29 06-Ugly Thoughts
DR6 -0.32 dB -8.23 dB 3:36 07-Coco Blood
––––––––––––––––––––––––––––––––––––––––

Number of tracks: 7
Official DR value: DR8

Samplerate: 44100 Hz
Channels: 2
Bits per sample: 24
Bitrate: 1556 kbps
Codec: FLAC
================================================================================


All thanks go to the original releaser