Charlie Parker - The Savoy 10-inch LP Collection (2020) [Official Digital Download]

Posted By: pyatak
Charlie Parker - The Savoy 10-inch LP Collection (2020) [Official Digital Download]

Charlie Parker - The Savoy 10-inch LP Collection (2020) [Official Digital Download]
FLAC (tracks) 24-bit/44.1 kHz | Front Cover | Time - 01:18:47 minutes | 403 MB
Jazz | Label: Craft Recordings, Official Digital Download

Craft Recordings presents The Savoy 10-Inch LP Collection, a deluxe box set with four 10-inch LPs cut from newly restored and remastered audio. The collection highlights?Bird's pioneering bebop recordings for Savoy Records from 1944-1948, featuring jazz legends Miles Davis, Dizzy Gillespie, John Lewis and more. The package includes faithfully restored original album artwork, plus a booklet containing vintage photos, rare ephemera and new liner notes by GRAMMYr-winning author Neil Tesser.

TRACKLIST

CD1

1. Charlie Parker - Now's The Time
2. Charlie Parker - Donna Lee
3. Charlie Parker - Chasin' The Bird
4. Charlie Parker - Red Cross
5. Charlie Parker - Ko-Ko
6. Charlie Parker - Warmin' Up A Riff
7. Charlie Parker - Half Nelson
8. Charlie Parker - Sipping At Bells

CD2

1. Charlie Parker - Billie's Bounce
2. Charlie Parker - Cheryl
3. Charlie Parker - Milestones
4. Charlie Parker - Another Hair-Do
5. Charlie Parker - Thriving From A Riff
6. Charlie Parker - Buzzy
7. Charlie Parker - Little Willie Leaps
8. Charlie Parker - Klaunstance

CD3

1. Charlie Parker - Bluebird
2. Charlie Parker - Bird Gets The Worm
3. Charlie Parker - Parker's Mood
4. Charlie Parker - Steeplechase
5. Charlie Parker - Perhaps
6. Charlie Parker - Tiny's Tempo

\CD4

1. Charlie Parker - Constellation
2. Charlie Parker - Merry Go Round
3. Charlie Parker - Confirmation
4. Charlie Parker - Barbados
5. Charlie Parker - Ah-Leu-Cha
6. Charlie Parker - Marmaduke

foobar2000 1.6.1 / Dynamic Range Meter 1.1.1
log date: 2020-11-05 17:57:56

––––––––––––––––––––––––––––––––––––––––
Analyzed: Charlie Parker / The Savoy 10-inch LP Collection
––––––––––––––––––––––––––––––––––––––––

DR Peak RMS Duration Track
––––––––––––––––––––––––––––––––––––––––
DR12 -0.03 dB -16.54 dB 3:18 01-Now's The Time
DR11 -0.02 dB -13.70 dB 2:35 02-Donna Lee
DR11 -1.77 dB -14.28 dB 2:47 03-Chasin' The Bird
DR9 -1.68 dB -12.69 dB 3:11 04-Red Cross
DR11 -0.14 dB -13.52 dB 2:58 05-Ko-Ko
DR12 -0.53 dB -13.98 dB 2:38 06-Warmin' Up A Riff
DR11 -0.89 dB -13.71 dB 2:45 07-Half Nelson
DR9 -0.74 dB -12.01 dB 2:25 08-Sipping At Bells
––––––––––––––––––––––––––––––––––––––––

Number of tracks: 8
Official DR value: DR11

Samplerate: 44100 Hz
Channels: 2
Bits per sample: 24
Bitrate: 761 kbps
Codec: FLAC
================================================================================

foobar2000 1.6.1 / Dynamic Range Meter 1.1.1
log date: 2020-11-05 17:58:00

––––––––––––––––––––––––––––––––––––––––
Analyzed: Charlie Parker / The Savoy 10-inch LP Collection
––––––––––––––––––––––––––––––––––––––––

DR Peak RMS Duration Track
––––––––––––––––––––––––––––––––––––––––
DR10 -0.03 dB -12.67 dB 3:11 01-Billie's Bounce
DR11 -0.29 dB -13.45 dB 3:01 02-Cheryl
DR10 -0.43 dB -12.52 dB 2:39 03-Milestones
DR11 -0.03 dB -13.55 dB 2:42 04-Another Hair-Do
DR11 -0.02 dB -14.65 dB 2:58 05-Thriving From A Riff
DR10 -0.13 dB -12.39 dB 2:33 06-Buzzy
DR9 -0.02 dB -10.22 dB 2:53 07-Little Willie Leaps
DR10 -0.17 dB -11.97 dB 2:45 08-Klaunstance
––––––––––––––––––––––––––––––––––––––––

Number of tracks: 8
Official DR value: DR10

Samplerate: 44100 Hz
Channels: 2
Bits per sample: 24
Bitrate: 734 kbps
Codec: FLAC
================================================================================

foobar2000 1.6.1 / Dynamic Range Meter 1.1.1
log date: 2020-11-05 17:58:03

––––––––––––––––––––––––––––––––––––––––
Analyzed: Charlie Parker / The Savoy 10-inch LP Collection
––––––––––––––––––––––––––––––––––––––––

DR Peak RMS Duration Track
––––––––––––––––––––––––––––––––––––––––
DR11 -0.02 dB -13.50 dB 2:53 01-Bluebird
DR11 -0.33 dB -13.54 dB 2:39 02-Bird Gets The Worm
DR9 -0.40 dB -13.56 dB 3:05 03-Parker's Mood
DR10 -2.23 dB -13.95 dB 3:06 04-Steeplechase
DR8 -2.63 dB -12.79 dB 2:35 05-Perhaps
DR9 -0.21 dB -11.45 dB 2:55 06-Tiny's Tempo
––––––––––––––––––––––––––––––––––––––––

Number of tracks: 6
Official DR value: DR10

Samplerate: 44100 Hz
Channels: 2
Bits per sample: 24
Bitrate: 733 kbps
Codec: FLAC
================================================================================

foobar2000 1.6.1 / Dynamic Range Meter 1.1.1
log date: 2020-11-05 17:58:05

––––––––––––––––––––––––––––––––––––––––
Analyzed: Charlie Parker / The Savoy 10-inch LP Collection
––––––––––––––––––––––––––––––––––––––––

DR Peak RMS Duration Track
––––––––––––––––––––––––––––––––––––––––
DR9 -0.96 dB -11.74 dB 2:30 01-Constellation
DR9 -0.80 dB -11.62 dB 2:27 02-Merry Go Round
DR11 -0.02 dB -12.52 dB 3:13 03-Confirmation
DR10 -0.44 dB -12.02 dB 2:30 04-Barbados
DR10 -0.62 dB -12.25 dB 2:54 05-Ah-Leu-Cha
DR9 -0.90 dB -11.78 dB 2:42 06-Marmaduke
––––––––––––––––––––––––––––––––––––––––

Number of tracks: 6
Official DR value: DR10

Samplerate: 44100 Hz
Channels: 2
Bits per sample: 24
Bitrate: 826 kbps
Codec: FLAC
================================================================================



Thanks to the Original customer.