Charnett Moffett - New Love (2021) [Official Digital Download 24/96]

Posted By: pyatak
Charnett Moffett - New Love (2021) [Official Digital Download 24/96]

Charnett Moffett - New Love (2021) [Official Digital Download 24/96]
FLAC (tracks) 24-bit/96 kHz | Front Cover | Time - 48:47 minutes | 0,99 GB
Jazz | Label: Motema, Official Digital Download

Internationally acclaimed bassist-composer and bandleader Charnett Moffett further refines a virtuosic sound on New Love, his seventh leader release for Motéma Music, and his 17th album to date. An exploratory and vibrant follow-up to his 2018 recording Bright New Day, the album expresses Moffett’s deeply personal permutations of love and an embracing of change as part of life’s progression, as he explains: “Music is a universal language that speaks to all people. In life, human beings are in the constant process of change — whether an individual is conscious of this process or not.”

A melodious conversationalist and reflexive listener, Moffett features the fretless electric bass, often in its upper register, alongside fearless collaborators Jana Herzen on guitar and vocals, Corey Garcia and rising-star Malick Koly on drums and Irwin Hall on tenor and soprano saxophones and alto flute. Interplay among the artists is an album virtue.

“When you’re using the bass as a lead instrument – as a voice, to create melodies – and you have more space, the sound of the instrument can resonate more and be heard in a more complete way for its ‘new’ position,” says Moffett, who pared down the ensemble from quintet to trio and quartet for New Love, leaving out piano.

TRACKLIST

01. Charnett Moffett - Swinging in the Realms
02. Charnett Moffett - We Remember
03. Charnett Moffett - Little Flowers
04. Charnett Moffett - Today
05. Charnett Moffett - Higher Dimensions
06. Charnett Moffett - I Didn't Know
07. Charnett Moffett - Flying in the Air
08. Charnett Moffett - ETQ
09. Charnett Moffett - New Love
10. Charnett Moffett - Spirit & Bride Song
11. Charnett Moffett - Love for the People
12. Charnett Moffett - Rejoice

foobar2000 1.6.2 / Dynamic Range Meter 1.1.1
log date: 2021-06-11 18:28:41

––––––––––––––––––––––––––––––––––––––––
Analyzed: Charnett Moffett / New Love
––––––––––––––––––––––––––––––––––––––––

DR Peak RMS Duration Track
––––––––––––––––––––––––––––––––––––––––
DR8 -0.50 dB -9.33 dB 4:02 01-Swinging in the Realms
DR9 -0.50 dB -11.21 dB 4:53 02-We Remember
DR8 -0.50 dB -10.05 dB 3:30 03-Little Flowers
DR8 -0.50 dB -9.61 dB 3:23 04-Today
DR7 -0.50 dB -9.24 dB 3:30 05-Higher Dimensions
DR9 -0.50 dB -11.37 dB 3:20 06-I Didn't Know
DR8 -0.50 dB -9.63 dB 3:03 07-Flying in the Air
DR8 -0.50 dB -9.54 dB 4:48 08-ETQ
DR9 -0.50 dB -12.28 dB 4:39 09-New Love
DR10 -0.50 dB -11.66 dB 4:52 10-Spirit & Bride Song
DR9 -0.50 dB -10.63 dB 5:50 11-Love for the People
DR6 -0.50 dB -8.34 dB 3:57 12-Rejoice
––––––––––––––––––––––––––––––––––––––––

Number of tracks: 12
Official DR value: DR8

Samplerate: 96000 Hz
Channels: 2
Bits per sample: 24
Bitrate: 2892 kbps
Codec: FLAC
================================================================================



Thanks to the Original customer.