Tags
Language
Tags

Chastity Belt - Chastity Belt (2019) [Official Digital Download 24/96]

Posted By: Pisulik
Chastity Belt - Chastity Belt (2019) [Official Digital Download 24/96]

Chastity Belt - Chastity Belt (2019)
FLAC (tracks) 24-bit/96 kHz | Time - 42:58 minutes | 882 MB
Studio Master, Official Digital Download | Artwork: Front cover

Chastity Belt talks a lot about intention these days how to be more present with each other. The four piece Julia Shapiro (vocals, guitar, drums), Lydia Lund (vocals, guitar), Gretchen Grimm (drums, vocals, guitar) and Annie Truscott (bass) are nine years deep in this, after all. It seems now, more than ever, that circuit is a movement of intentionality, one that creates a space inside which they can be themselves, among themselves. Their fourth record, Chastity Belt, comes out of that safe space. After a restorative few months on hiatus in 2018, each member worked on solo material or toured with other bands. Their experience navigating adult life within the strange seasons of the music industry has Chastity Belt orienting themselves towards whatever gets them to feel the most present with each other, in any part of the band grind. With the luxury of spending several weeks in the studio with Jay Som's Melina Duterte, Chastity Belt was able to experiment. The new self-titled album is the work of the band playing ''old songs, and trying new things on top of it,'' like adding more dynamic harmonies and violin, says bassist Annie Truscott. Lydia, Gretchen, and Julia all share lead vocals on different tracks on the album. The result is their most sonically developed and nuanced record yet; one that's not only a product of, but a series of reflections on what it means to take what you need and to understand yourself better. Many of Chastity Belt's signature dynamics, from the silly to the sincere, have read as feminist gestures: the Cool Slut DGAF-iness, the shrugging off of the ''women in rock'' press gargle, the fundamentally punk act of creating music on your own as a woman, and being lyrically forthright. What the making of Chastity Belt reveals is that the band has tapped into a deeper tradition of women making art on their terms: the act of self-preservation in favor of the long game. In favor of each other. In this cultural moment, taking space like this to prioritize the love over the product seems progressive. Chastity Belt's intentions have resulted in an album deeply expressive of four people's commitment to what they love most: making music with each other.

Tracklist:

01. Ann's Jam
02. Elena
03. Effort
04. Rav-4
05. It Takes Time
06. Apart
07. Half-hearted
08. Split
09. Drown
10. Pissed Pants

foobar2000 1.3.7 / Dynamic Range Meter 1.1.1
log date: 2019-09-19 05:15:13

––––––––––––––––––––––––––––––––––––––––
Analyzed: Chastity Belt / Chastity Belt
––––––––––––––––––––––––––––––––––––––––

DR Peak RMS Duration Track
––––––––––––––––––––––––––––––––––––––––
DR5 -0.30 dB -7.59 dB 4:56 01-Ann's Jam
DR7 -0.30 dB -7.98 dB 3:20 02-Elena
DR7 -0.30 dB -8.76 dB 5:07 03-Effort
DR7 -0.30 dB -8.99 dB 3:40 04-Rav-4
DR6 -0.30 dB -7.00 dB 4:05 05-It Takes Time
DR7 -0.30 dB -8.45 dB 3:33 06-Apart
DR6 -0.30 dB -9.47 dB 5:25 07-Half-hearted
DR7 -0.30 dB -8.10 dB 3:53 08-Split
DR8 -0.30 dB -9.64 dB 4:06 09-Drown
DR7 -0.30 dB -8.22 dB 4:55 10-Pissed Pants
––––––––––––––––––––––––––––––––––––––––

Number of tracks: 10
Official DR value: DR7

Samplerate: 96000 Hz
Channels: 2
Bits per sample: 24
Bitrate: 2857 kbps
Codec: FLAC
================================================================================


All thanks go to the original releaser