Chet Baker - Albert's House (1969/2017) [Official Digital Download]

Posted By: pyatak
Chet Baker - Albert's House (1969/2017) [Official Digital Download]

Chet Baker - Albert's House (1969/2017) [Official Digital Download]
FLAC (tracks) 24-bit/44.1 kHz | Front Cover | Time - 47:52 minutes | 470 MB
Jazz | Label: Beverly Hills Records, Official Digital Download

Albert's House is a studio album by jazz trumpeter Chet Baker recorded in 1969 and released on the Beverly Hills label. The album features 11 compositions by Steve Allen who organized the recording date to assist Baker in restarting his career after a horrific injury wrecked his embouchure.

TRACKLIST

1. Chet Baker - Albert's House
2. Chet Baker - Farewell San Francisco
3. Chet Baker - Time
4. Chet Baker - I Should Have Told You
5. Chet Baker - How Dare You Sir
6. Chet Baker - End of the Line
7. Chet Baker - Pretty People
8. Chet Baker - Sunday in Town
9. Chet Baker - A Man Who Used to Be
10. Chet Baker - Never Had This Feeling Before
11. Chet Baker - Life
12. Chet Baker - Nice Little Girls

foobar2000 1.6.2 / Dynamic Range Meter 1.1.1
log date: 2021-05-07 16:43:24

––––––––––––––––––––––––––––––––––––––––
Analyzed: Chet Baker / Albert's House
––––––––––––––––––––––––––––––––––––––––

DR Peak RMS Duration Track
––––––––––––––––––––––––––––––––––––––––
DR5 -1.21 dB -9.06 dB 2:34 01-Albert's House
DR8 -1.21 dB -11.43 dB 4:58 02-Farewell San Francisco
DR8 -1.21 dB -11.67 dB 4:41 03-Time
DR8 -1.21 dB -11.37 dB 4:41 04-I Should Have Told You
DR7 -1.21 dB -10.85 dB 3:35 05-How Dare You Sir
DR8 -1.21 dB -11.54 dB 3:25 06-End of the Line
DR7 -1.21 dB -10.75 dB 3:33 07-Pretty People
DR7 -1.21 dB -11.36 dB 4:57 08-Sunday in Town
DR7 -1.21 dB -10.35 dB 3:33 09-A Man Who Used to Be
DR7 -1.21 dB -10.97 dB 3:40 10-Never Had This Feeling Before
DR8 -1.21 dB -11.91 dB 4:19 11-Life
DR7 -1.21 dB -10.43 dB 4:01 12-Nice Little Girls
––––––––––––––––––––––––––––––––––––––––

Number of tracks: 12
Official DR value: DR7

Samplerate: 44100 Hz
Channels: 2
Bits per sample: 24
Bitrate: 1345 kbps
Codec: FLAC
================================================================================



Thanks to the Original customer.