Chloe Foy - Where Shall We Begin (2021) [Official Digital Download]

Posted By: pyatak
Chloe Foy - Where Shall We Begin (2021) [Official Digital Download]

Chloe Foy - Where Shall We Begin (2021) [Official Digital Download]
FLAC (tracks) 24-bit/44.1 kHz | Front Cover | Time - 40:38 minutes | 459 MB
Folk | Label: Chloe Foy Music , Official Digital Download

The Gloucester-via-Manchester singer-songwriter Chloe Foy releases her debut album ‘Where Shall We Begin’ after a ten-year search for a voice truly her own. The result is a record showcasing introspective and nuanced work that could only come from a musician who let her songwriting mature over time. Touching on themes of life and loss, love and fear, Foy wrote the album while dealing with the loss of her father to depression.

In her opening track, Where Shall We Begin, Foy sings: “Death to those who wait/ Likely it’s too late”. It’s a song about the brevity of life, about the things that don’t always work out as planned – the people you love and lose, the moments that fly past when you forget to pay attention. Although weighed down with lyrical melancholy, the song darts through the air with finger-picked guitar notes. Towards the end, it lifts off with big, choral vocals and lush strings, only to bring the listener attention to life’s transience with the words “Hold on/ You’re gone”.

Deserve swerves the album into indie territory. Foy’s vocals tie the stylistic changes together, with her drawn-out vocals drifting through the lower register of her voice. She sings with daydreamy ease, and the slide guitar in the instrumental is spacious and light.

TRACKLIST

1. Chloe Foy - Where Shall We Begin
2. Chloe Foy - Deserve
3. Chloe Foy - Work of Art
4. Chloe Foy - Evangeline
5. Chloe Foy - Asylum
6. Chloe Foy - Bones
7. Chloe Foy - Shining Star
8. Chloe Foy - Left-Centred Weight
9. Chloe Foy - And It Goes
10. Chloe Foy - Square Face

foobar2000 1.6.2 / Dynamic Range Meter 1.1.1
log date: 2021-06-11 13:14:39

––––––––––––––––––––––––––––––––––––––––
Analyzed: Chloe Foy / Where Shall We Begin
––––––––––––––––––––––––––––––––––––––––

DR Peak RMS Duration Track
––––––––––––––––––––––––––––––––––––––––
DR9 -0.97 dB -13.26 dB 3:02 01-Where Shall We Begin
DR9 -0.52 dB -10.51 dB 4:36 02-Deserve
DR10 -0.50 dB -11.50 dB 3:34 03-Work of Art
DR10 -0.47 dB -12.68 dB 4:28 04-Evangeline
DR8 -0.51 dB -11.95 dB 4:27 05-Asylum
DR9 -0.57 dB -12.99 dB 4:40 06-Bones
DR10 -0.49 dB -12.20 dB 3:12 07-Shining Star
DR10 -0.53 dB -12.47 dB 4:04 08-Left-Centred Weight
DR9 -0.63 dB -12.61 dB 5:00 09-And It Goes
DR9 -0.50 dB -12.99 dB 3:40 10-Square Face
––––––––––––––––––––––––––––––––––––––––

Number of tracks: 10
Official DR value: DR9

Samplerate: 44100 Hz
Channels: 2
Bits per sample: 24
Bitrate: 1483 kbps
Codec: FLAC
================================================================================



Thanks to the Original customer.