Tags
Language
Tags

Nelson Freire - Chopin: Piano Concerto No.2; Ballade No.4; Berceuse; Polonaise Héroïque (2015) [TR24][OF]

Posted By:
Nelson Freire - Chopin: Piano Concerto No.2; Ballade No.4; Berceuse; Polonaise Héroïque (2015) [TR24][OF]

Nelson Freire - Chopin: Piano Concerto No.2; Ballade No.4; Berceuse; Polonaise Héroïque
Classical | FLAC (tracks) 24-bit/96 kHz | 65:36 min | 1.12 GB | Digital booklet
Label: Decca | Tracks: 10 | Rls.date: 2015

In the third of three new landmark albums on the Decca label, Nelson Freire marks his 70th birthday year with a stunning recording of Chopin s lyrical and brilliant Piano Concerto No. 2

The recording was made in Cologne with the Gürzenich-Orchester Köln and Lionel Bringuier, one of the most talked-about of the younger generation of conductors

The release also features some favourite Chopin solo works the Ballade No. 4 in F minor, Op. 52, the Berceuse in D flat major, Op. 57, the Polonaise in A flat major, Op. 53, Three Mazurkas, Op. 50, plus the Impromptu in G flat major Op. 51

This is Freire s fourth Chopin recording for Decca, which includes his celebrated set of the complete Nocturnes, of which the
Guardian wrote:[Freire] respects the poise and elegance of the melodic lines, floating them exquisitely while teasing out the harmonies beneath with fastidious care; this is Chopin playing of high quality, from one of the finest pianists alive today.

TRACKLIST
01. Impromptu No.3 in G flat major Op.51 (4:58)
02. Ballade No.4 in F minor Op.52 (10:23)
03. Berceuse in D flat major Op.57 (4:08)
04. 3 Mazurkas, Op.50 - No.1 in G major: Vivace (2:12)
05. 3 Mazurkas, Op.50 - No.2 in A flat major: Allegretto (2:45)
06. 3 Mazurkas, Op.50 - No.3 in C sharp minor: Moderato (4:37)
07. Polonaise in A flat major, Op.53 “Polonaise héroïque” (6:48)
08. Piano Concerto No.2 in F minor Op.21 - I. Maestoso (13:22)
09. Piano Concerto No.2 in F minor Op.21 - II. Larghetto (8:15)
10. Piano Concerto No.2 in F minor Op.21 - III. Allegro vivace (8:08)

foobar2000 1.3.7 / Замер динамического диапазона (DR) 1.1.1
Дата отчёта: 2017-02-06 22:27:03

––––––––––––––––––––––––––––––––––––––––
Анализ: Nelson Freire & Lionel Bringuier-Gürzenich-Orchester Köln / Chopin : Piano Concerto No. 2
––––––––––––––––––––––––––––––––––––––––

DR Пики RMS Продолжительность трека
––––––––––––––––––––––––––––––––––––––––
DR13 -0.28 дБ -18.26 дБ 13:23 08-Piano Concerto No.2 in F minor Op.21 - I. Maestoso
DR15 -1.82 дБ -22.87 дБ 8:16 09-Piano Concerto No.2 in F minor Op.21 - II. Larghetto
DR12 -0.51 дБ -17.09 дБ 8:08 10-Piano Concerto No.2 in F minor Op.21 - III. Allegro vivace
––––––––––––––––––––––––––––––––––––––––

Количество треков: 3
Реальные значения DR: DR13

Частота: 96000 Гц
Каналов: 2
Разрядность: 24
Битрейт: 2685 кбит/с
Кодек: FLAC
================================================================================

––––––––––––––––––––––––––––––––––––––––
Анализ: Nelson Freire / Chopin : 3 Mazurkas, Op. 50
––––––––––––––––––––––––––––––––––––––––

DR Пики RMS Продолжительность трека
––––––––––––––––––––––––––––––––––––––––
DR12 -2.95 дБ -21.50 дБ 2:12 04-3 Mazurkas, Op.50 - No.1 in G major: Vivace
DR13 -5.02 дБ -21.90 дБ 2:46 05-3 Mazurkas, Op.50 - No.2 in A flat major: Allegretto
DR13 -3.61 дБ -22.04 дБ 4:37 06-3 Mazurkas, Op.50 - No.3 in C sharp minor: Moderato
––––––––––––––––––––––––––––––––––––––––

Количество треков: 3
Реальные значения DR: DR13

Частота: 96000 Гц
Каналов: 2
Разрядность: 24
Битрейт: 2174 кбит/с
Кодек: FLAC
================================================================================

––––––––––––––––––––––––––––––––––––––––
Статистика для: 02-Ballade No.4 in F minor Op.52
Количество сэмплов: 59860480
Продолжительность: 10:24
––––––––––––––––––––––––––––––––––––––––

Левый Правый

Пики: -0.82 дБ –- -0.35 дБ
Средний RMS: -19.20 дБ –- -18.12 дБ
DR канала: 13.27 дБ –- 12.45 дБ
––––––––––––––––––––––––––––––––––––––––

Реальные значения DR: DR13

Частота: 96000 Гц
Каналов: 2
Разрядность: 24
Битрейт: 2216 кбит/с
Кодек: FLAC
================================================================================
––––––––––––––––––––––––––––––––––––––––
Статистика для: 03-Berceuse in D flat major Op.57
Количество сэмплов: 23866880
Продолжительность: 4:09
––––––––––––––––––––––––––––––––––––––––

Левый Правый

Пики: -10.63 дБ –- -10.30 дБ
Средний RMS: -28.10 дБ –- -27.00 дБ
DR канала: 13.31 дБ –- 12.89 дБ
––––––––––––––––––––––––––––––––––––––––

Реальные значения DR: DR13

Частота: 96000 Гц
Каналов: 2
Разрядность: 24
Битрейт: 2123 кбит/с
Кодек: FLAC
================================================================================
––––––––––––––––––––––––––––––––––––––––
Статистика для: 01-Impromptu No.3 in G flat major Op.51
Количество сэмплов: 28685194
Продолжительность: 4:59
––––––––––––––––––––––––––––––––––––––––

Левый Правый

Пики: -4.69 дБ –- -4.05 дБ
Средний RMS: -23.38 дБ –- -23.15 дБ
DR канала: 13.92 дБ –- 12.85 дБ
––––––––––––––––––––––––––––––––––––––––

Реальные значения DR: DR13

Частота: 96000 Гц
Каналов: 2
Разрядность: 24
Битрейт: 2180 кбит/с
Кодек: FLAC
================================================================================
––––––––––––––––––––––––––––––––––––––––
Статистика для: 07-Polonaise in A flat major, Op.53 “Polonaise héroïque”
Количество сэмплов: 39213774
Продолжительность: 6:48
––––––––––––––––––––––––––––––––––––––––

Левый Правый

Пики: -0.56 дБ –- -0.37 дБ
Средний RMS: -15.42 дБ –- -14.59 дБ
DR канала: 11.30 дБ –- 10.91 дБ
––––––––––––––––––––––––––––––––––––––––

Реальные значения DR: DR11

Частота: 96000 Гц
Каналов: 2
Разрядность: 24
Битрейт: 2323 кбит/с
Кодек: FLAC
================================================================================


Thanks to the Original customer.