Chris Thile - Laysongs (2021) [Official Digital Download 24/96]

Posted By: pyatak
Chris Thile - Laysongs (2021) [Official Digital Download 24/96]

Chris Thile - Laysongs (2021) [Official Digital Download 24/96]
FLAC (tracks) 24-bit/96 kHz | Front Cover | Time - 40:46 minutes | 713 MB
Pop, Folk | Label: Nonesuch, Official Digital Download

The album is his first truly solo album: just Thile, his voice, and his mandolin, on new recordings of six original songs and three covers, all of which contextualize and banter with his ideas about spirituality. Recorded in a converted upstate New York church during the pandemic, Laysongs’ centerpiece is the three-part “Salt (in the Wounds) of the Earth,” which was inspired by C.S. Lewis’sThe Screwtape Letters. The album also features a song Thile wrote about Dionysus; a performance of the fourth movement of Béla Bartók’sSonata for Solo Violin; “God Is Alive, Magic Is Afoot” based on Buffy Sainte-Marie’s adaptation of a Leonard Cohen poem; a cover of bluegrass legend Hazel Dickens’ “Won’t You Come and Sing for Me;” and an original instrumental loosely modeled after the Prelude from J.S. Bach’s Partita for Solo Violin in E Major

TRACKLIST

1. Chris Thile - Laysong
2. Chris Thile - Ecclesiastes
3. Chris Thile - God Is Alive Magic Is Afoot
4. Chris Thile - Salt (in the Wounds) of the Earth, Pt. 1
5. Chris Thile - Salt (in the Wounds) of the Earth, Pt. 2
6. Chris Thile - Salt (in the Wounds) of the Earth, Pt. 3
7. Chris Thile - Sonata for Solo Violin, Sz. 117: IV. Presto
8. Chris Thile - Dionysus
9. Chris Thile - Won't You Come and Sing for Me

foobar2000 1.6.2 / Dynamic Range Meter 1.1.1
log date: 2021-06-05 08:54:01

––––––––––––––––––––––––––––––––––––––––
Analyzed: Chris Thile / Laysongs
––––––––––––––––––––––––––––––––––––––––

DR Peak RMS Duration Track
––––––––––––––––––––––––––––––––––––––––
DR10 -0.15 dB -15.20 dB 4:50 01-Laysong
DR15 -0.15 dB -19.83 dB 4:15 02-Ecclesiastes
DR10 -0.15 dB -14.73 dB 5:00 03-God Is Alive Magic Is Afoot
DR10 -0.15 dB -14.61 dB 3:27 04-Salt (in the Wounds) of the Earth, Pt. 1
DR16 -0.15 dB -21.02 dB 4:43 05-Salt (in the Wounds) of the Earth, Pt. 2
DR9 -0.15 dB -14.21 dB 4:50 06-Salt (in the Wounds) of the Earth, Pt. 3
DR15 -0.15 dB -19.39 dB 4:46 07-Sonata for Solo Violin, Sz. 117: IV. Presto
DR10 -0.15 dB -14.35 dB 4:49 08-Dionysus
DR14 -0.15 dB -20.66 dB 4:07 09-Won't You Come and Sing for Me
––––––––––––––––––––––––––––––––––––––––

Number of tracks: 9
Official DR value: DR12

Samplerate: 96000 Hz
Channels: 2
Bits per sample: 24
Bitrate: 2196 kbps
Codec: FLAC
================================================================================



Thanks to the Original customer.