Chris Walker - We're In This Love Together - A Tribute To Al Jarreau (2019/2021) [Official Digital Download]

Posted By: pyatak
Chris Walker - We're In This Love Together - A Tribute To Al Jarreau (2019/2021) [Official Digital Download]

Chris Walker - We're In This Love Together - A Tribute To Al Jarreau (2019/2021) [Official Digital Download]
FLAC (tracks) 24-bit/48 kHz | Front Cover | Time - 72:19 minutes | 837 MB
R&B, Soul, Vocal Jazz | Label: evosound, Official Digital Download

A musical tribute project co-produced by Chris Walker & Larry Williams. Special thank you to Dave Koz, Rick Braun, Kirk Whalum, Gerald Albright, Will Downing, Regina Belle, Bob James, Gil Goldstein, Mark Simmons , Bobby Lyle, Randy Brecker, Jay Graydon, Jerry Hey, David Foster, Arturo Sandoval, Greg Phillinganes, Paul Jackson Jr., David Caceres, Jonathan DuBose, Marcus Miller, Randy Bowland, Nathan East, John Stoddart, John Calderon, David Caceres, Leonardo Amuedo, Arno Lucas, Cassio Duarte, Kathleen Nester, Charles Pillow, Joy Mack, Chelsea Simone, Tom Walsh, Robbie Harvey, Gary Grant, Chuck Findley, Bill Reichenbach and Rohn Lawrence.

Al Jarreau’s unique vocal style is one of the world’s most precious treasures. His innovative musical expressions have made him one of the most exciting and critically-acclaimed performers of our time with seven Grammy Awards, scores of international music awards and popular accolades worldwide.

TRACKLIST

01. Chris Walker - Al's Message
02. Chris Walker - Mornin'
03. Chris Walker - Breakin' Away
04. Chris Walker - Roof Garden
05. Chris Walker - We Got By
06. Chris Walker - Save Me
07. Chris Walker - We're In This Love Together
08. Chris Walker - Alonzo
09. Chris Walker - Agua De Beber
10. Chris Walker - Not Like This
11. Chris Walker - Take Five
12. Chris Walker - I Will Be Here For You
13. Chris Walker - After All
14. Chris Walker - Flame
15. Chris Walker - Spain
16. Chris Walker - Phenomenon
17. Chris Walker - Jarreau

foobar2000 1.6.2 / Dynamic Range Meter 1.1.1
log date: 2021-01-13 22:22:57

––––––––––––––––––––––––––––––––––––––––
Analyzed: Chris Walker / We're In This Love Together - A Tribute To Al Jarreau
––––––––––––––––––––––––––––––––––––––––

DR Peak RMS Duration Track
––––––––––––––––––––––––––––––––––––––––
DR14 -1.43 dB -18.24 dB 0:48 01-Al's Message
DR14 0.00 dB -16.93 dB 5:35 02-Mornin'
DR13 0.00 dB -15.77 dB 4:39 03-Breakin' Away
DR15 0.00 dB -17.20 dB 3:39 04-Roof Garden
DR14 0.00 dB -17.54 dB 4:10 05-We Got By
DR14 -0.01 dB -16.97 dB 4:57 06-Save Me
DR13 0.00 dB -15.30 dB 3:45 07-We're In This Love Together
DR11 0.00 dB -13.65 dB 4:36 08-Alonzo
DR13 -0.87 dB -15.98 dB 3:00 09-Agua De Beber
DR11 -1.61 dB -16.67 dB 3:50 10-Not Like This
DR14 0.00 dB -18.22 dB 4:49 11-Take Five
DR14 0.00 dB -16.16 dB 4:28 12-I Will Be Here For You
DR13 0.00 dB -16.55 dB 4:03 13-After All
DR12 -0.08 dB -16.18 dB 4:57 14-Flame
DR15 0.00 dB -18.56 dB 6:44 15-Spain
DR15 0.00 dB -16.86 dB 4:26 16-Phenomenon
DR15 0.00 dB -17.36 dB 4:05 17-Jarreau
––––––––––––––––––––––––––––––––––––––––

Number of tracks: 17
Official DR value: DR14

Samplerate: 48000 Hz
Channels: 2
Bits per sample: 24
Bitrate: 1632 kbps
Codec: FLAC
================================================================================



Thanks to the Original customer.