Chuck Wayne - Traveling (Remastered) (1978/2020) [Official Digital Download 24/192]

Posted By: SERTiL
Chuck Wayne - Traveling (Remastered) (1978/2020) [Official Digital Download 24/192]

Chuck Wayne - Traveling (Remastered) (2020)
FLAC (tracks) 24-bit/192 kHz | Time - 44:51 minutes | 1.42 GB
Studio Master, Official Digital Download | Artwork: Digital Booklet

Originally recorded in 1978 guitarist Chuck Wayne is joined by vibist Warren Chiasson, bassist Jay Leonhart and drummer Ronnie Bedford. 10 tracks including two alternate takes of The Summer Knows and When The Lights Are Low.

From the top to the bottom of this album which was recorded in 1976, Chuck “flies” over the fingerboard of his electric guitar with astounding “chops” and amazing, soaring lines. Each tune, thoughtfully arranged, with elements, rhythmic or melodic and instrumental combinations, has a personality of its own. Chuck Wayne is definitely one of the guitar world’s giant heroes. This recording is a unique treasure, to be shared by that entire world.

Tracklist:
01. I Concentrate On You (5:30)
02. When the Lights Are Low (4:44)
03. The Summer Knows (5:48)
04. Traveling (5:15)
05. Have You Met Miss Jones (3:44)
06. Spring Can Really Hang You Up the Most (7:22)
07. Stella By Starlight (5:35)
08. Skyliner (6:57)

Personnel:
Chuck Wayne, guitar
Warren Chiasson, vibraphone
Jay Leonhart, bass
Ronnie Bedford, drums

Digitally remastered

foobar2000 1.3.7 / Dynamic Range Meter 1.1.1
log date: 2020-02-11 20:35:07

––––––––––––––––––––––––––––––––––––––––
Analyzed: Chuck Wayne / Traveling
––––––––––––––––––––––––––––––––––––––––

DR Peak RMS Duration Track
––––––––––––––––––––––––––––––––––––––––
DR12 -1.32 dB -15.98 dB 5:30 01-I Concentrate On You
DR12 0.00 dB -16.45 dB 4:44 02-When the Lights Are Low
DR14 -0.28 dB -20.26 dB 5:48 03-The Summer Knows
DR14 0.00 dB -16.17 dB 5:15 04-Traveling
DR14 -0.61 dB -18.34 dB 3:44 05-Have You Met Miss Jones
DR17 -0.32 dB -21.45 dB 7:22 06-Spring Can Really Hang You Up the Most
DR13 -2.17 dB -19.36 dB 5:35 07-Stella By Starlight
DR16 -0.03 dB -20.14 dB 6:57 08-Skyliner
––––––––––––––––––––––––––––––––––––––––

Number of tracks: 8
Official DR value: DR14

Samplerate: 192000 Hz
Channels: 2
Bits per sample: 24
Bitrate: 4598 kbps
Codec: FLAC
================================================================================


Thanks to the Original customer.