Tags
Language
Tags

Coheed and Cambria - Vaxis - Act I: The Unheavenly Creatures (2018) [Official Digital Download 24/88]

Posted By: Pisulik
Coheed and Cambria - Vaxis - Act I: The Unheavenly Creatures (2018) [Official Digital Download 24/88]

Coheed and Cambria - Vaxis - Act I: The Unheavenly Creatures (2018)
FLAC (tracks) 24-bit/88.2 kHz | Time - 79:20 minutes | 1,55 GB
Studio Master, Official Digital Download | Artwork: Front cover

Roadrunner Records group Coheed and Cambria have announced details of their long awaited new album and label debut, The Unheavenly Creatures (album art & track listing attached). The sprawling fifteen track, self-produced, 78-minute epic finds Coheed and Cambria returning to the conceptual narrative of The Amory Wars.

Coheed and Cambria recently released The Unheavenly Creatures' 10-minute prog manifesto, "The Dark Sentencer," which was leaked to fans by frontman Claudio Sanchez along with the opening paragraphs from the album's aforementioned novella. "'The Dark Sentencer' opens with prickly guitars that build into a stadium-sized thump," noted Rolling Stone while Revolver declared, "the soaring song with its rolling guitar riff could soundtrack the montage to any intergalactic underdog story." Consequence of Sound hailed "The Dark Sentencer" adding, "Gang vocals and ephemeral harmonies underscore the band's trademark shredding."

Tracklist:

01. Prologue
02. The Dark Sentencer
03. Unheavenly Creatures
04. Toys
05. Black Sunday
06. Queen of the Dark
07. True Ugly
08. Love Protocol
09. The Pavilion (A Long Way Back)
10. Night-Time Walkers
11. The Gutter
12. All On Fire
13. It Walks Among Us
14. Old Flames
15. Lucky Stars

Personnel:

Claudio Sanchez - vocals, guitar
Travis Stever - guitar
Zach Cooper - bass
Josh Eppard - drums

foobar2000 1.3.7 / Dynamic Range Meter 1.1.1
log date: 2018-10-05 02:47:16

––––––––––––––––––––––––––––––––––––––––
Analyzed: Coheed and Cambria / Vaxis - Act I: The Unheavenly Creatures
––––––––––––––––––––––––––––––––––––––––

DR Peak RMS Duration Track
––––––––––––––––––––––––––––––––––––––––
DR11 -4.55 dB -20.94 dB 2:07 01-Prologue
DR7 -0.74 dB -9.42 dB 7:45 02-The Dark Sentencer
DR8 -0.74 dB -10.17 dB 4:14 03-Unheavenly Creatures
DR8 -0.74 dB -10.19 dB 6:28 04-Toys
DR7 -0.74 dB -9.22 dB 4:46 05-Black Sunday
DR8 -0.74 dB -10.25 dB 5:51 06-Queen of the Dark
DR8 -0.74 dB -9.37 dB 5:26 07-True Ugly
DR7 -0.74 dB -9.24 dB 4:30 08-Love Protocol
DR7 -0.74 dB -9.47 dB 5:12 09-The Pavilion (A Long Way Back)
DR8 -0.74 dB -11.41 dB 5:09 10-Night-Time Walkers
DR8 -0.74 dB -9.60 dB 5:50 11-The Gutter
DR8 -0.74 dB -9.79 dB 5:41 12-All On Fire
DR8 -0.74 dB -9.78 dB 5:30 13-It Walks Among Us
DR8 -0.74 dB -10.71 dB 5:51 14-Old Flames
DR9 -0.75 dB -12.63 dB 5:09 15-Lucky Stars
––––––––––––––––––––––––––––––––––––––––

Number of tracks: 15
Official DR value: DR8

Samplerate: 88200 Hz
Channels: 2
Bits per sample: 24
Bitrate: 2630 kbps
Codec: FLAC
================================================================================


All thanks go to the original releaser