Tags
Language
Tags

Connie Francis - Sings Jewish Favorites (1959/2021) [Official Digital Download 24/96]

Posted By: pyatak
Connie Francis - Sings Jewish Favorites (1959/2021) [Official Digital Download 24/96]

Connie Francis - Sings Jewish Favorites (1959/2021) [Official Digital Download 24/96]
FLAC (tracks) 24-bit/96 kHz | Front Cover | Time - 55:21 minutes | 976 MB
Folk | Label: RevOla, Official Digital Download

After the success of her 1959 album Connie Francis Sings Italian Favorites (which remained on the album charts for 81 weeks and peaked at number four), Francis decided to release more albums which appealed to immigrant communities in the United States.

In July 1960, Francis was in Hollywood for the interior shots of her first motion picture Where The Boys Are which made it impossible for her to record the album during live sessions at EMI's famous Abbey Road Studios in London, as she had done with Connie Francis Sings Italian Favorites. Hence, the playbacks to these songs were pre-recorded in London under the supervision of Francis' British producer Norman Newell, and were conducted by Brian Fahey. The tapes containing these playbacks were shipped to Hollywood where Francis overdubbed her vocals.

According to Ron Roberts, all the recording dates and titles included in the 1975 edition of his series of Connie Francis discographies were faithful copies of sessions logs compiled at the time by Connie herself. The entire Jewish album was recorded at EMI's Abbey Road studios, together with her preceding release, Connie Francis Sings Spanish & Latin American Favorites, and the subsequent album More Italian Favorites. It was the last album that could not be completed during the July sessions, and final tracks by Connie were cut in September 1960.

Francis, who had grown up in an Italian-Jewish neighborhood in Newark, spoke Yiddish fluently and was familiar with songs in Hebrew, which prompted her to record the songs either entirely in Yiddish or Hebrew or bilingually, with a few lines sung in English.

The album was originally released in October 1960 under the catalogue numbers E-3869 (mono pressings) and SE-3869 (stereo) on MGM Records. The album consisted of 12 songs, although 13 playbacks had been produced. However, conflicts with Francis' busy schedule of filming, recording for other markets and public appearances led to her not overdubbing vocals for her rendition of "Eli, Eli".

According to Ron Roberts, Francis did record "Eli Eli" in London during the Jewish album sessions and it had not been deferred because of other schedules. The backing track to this and several tapes of Connie's London sessions were disc

TRACKLIST

1. Connie Francis - Hava Nagilah (Remastered)
2. Connie Francis - My Yiddishe Momme (Remastered)
3. Connie Francis - Those Were The Days (Remastered)
4. Connie Francis - Anniversary Song (Oh, How We Danced) (Remastered)
5. Connie Francis - Wus Gerven Ist Gerven (Remastered)
6. Connie Francis - Yossel Yossel (Remastered)
7. Connie Francis - Shein Vi Di Levone (Remastered)
8. Connie Francis - O Mein Papa (Remastered)
9. Connie Francis - Ich Hob Dich Zuveel Lieb (Remastered)
10. Connie Francis - Mom-E-Le (Remastered)
11. Connie Francis - Tzena Tzena Tzena (Remastered)
12. Connie Francis - Oifen Pripetchik (Remastered)
13. Connie Francis - Fiddler On The Roof (Remastered)
14. Connie Francis - Mein Schtetele Belz (Remastered)
15. Connie Francis - Sunrise,Sunset (Remastered)
16. Connie Francis - The Exodus Song / Hava Nagilah (Remastered)
17. Connie Francis - I Love You Much Too Much (Remastered)

foobar2000 1.6.2 / Dynamic Range Meter 1.1.1
log date: 2021-08-24 15:57:08

––––––––––––––––––––––––––––––––––––––––
Analyzed: Connie Francis / Sings Jewish Favorites
––––––––––––––––––––––––––––––––––––––––

DR Peak RMS Duration Track
––––––––––––––––––––––––––––––––––––––––
DR11 -2.24 dB -15.72 dB 2:59 01-Hava Nagilah (Remastered)
DR12 -1.95 dB -18.56 dB 4:12 02-My Yiddishe Momme (Remastered)
DR12 -2.46 dB -19.39 dB 3:51 03-Those Were The Days (Remastered)
DR11 -3.03 dB -18.39 dB 2:58 04-Anniversary Song (Oh, How We Danced) (Remastered)
DR11 -3.80 dB -17.37 dB 3:17 05-Wus Gerven Ist Gerven (Remastered)
DR10 -4.61 dB -18.18 dB 2:30 06-Yossel Yossel (Remastered)
DR12 -3.76 dB -18.54 dB 2:02 07-Shein Vi Di Levone (Remastered)
DR11 -3.81 dB -18.80 dB 3:27 08-O Mein Papa (Remastered)
DR13 -2.71 dB -19.75 dB 3:18 09-Ich Hob Dich Zuveel Lieb (Remastered)
DR13 -1.69 dB -21.51 dB 4:01 10-Mom-E-Le (Remastered)
DR11 -5.13 dB -19.01 dB 1:56 11-Tzena Tzena Tzena (Remastered)
DR13 -5.15 dB -21.49 dB 2:49 12-Oifen Pripetchik (Remastered)
DR12 -3.68 dB -20.80 dB 2:05 13-Fiddler On The Roof (Remastered)
DR11 -5.15 dB -19.77 dB 3:02 14-Mein Schtetele Belz (Remastered)
DR11 -3.38 dB -18.64 dB 4:31 15-Sunrise,Sunset (Remastered)
DR12 -2.17 dB -20.28 dB 5:05 16-The Exodus Song / Hava Nagilah (Remastered)
DR14 -0.79 dB -18.14 dB 3:18 17-I Love You Much Too Much (Remastered)
––––––––––––––––––––––––––––––––––––––––

Number of tracks: 17
Official DR value: DR12

Samplerate: 96000 Hz
Channels: 2
Bits per sample: 24
Bitrate: 2287 kbps
Codec: FLAC
================================================================================



Thanks to the Original customer.