Tags
Language
Tags
November 2022
Su Mo Tu We Th Fr Sa
30 31 1 2 3 4 5
6 7 8 9 10 11 12
13 14 15 16 17 18 19
20 21 22 23 24 25 26
27 28 29 30 1 2 3

Conor Oberst - Ruminations (2016) [Official Digital Download 24/96]

Posted By: SERTiL
Conor Oberst - Ruminations (2016) [Official Digital Download 24/96]

Conor Oberst - Ruminations (2016)
FLAC (tracks) 24-bit/96 kHz | Time - 37:58 minutes | 798 MB
Studio Master, Official Digital Download | Artwork: Digital Booklet

This past winter, Conor Oberst found himself hibernating in his hometown of Omaha after living in New York City for more than a decade. He emerged with the unexpectedly raw, unadorned solo album Ruminations, available October 14, 2016, on Nonesuch Records. "I wasn't expecting to write a record," says Oberst. "I honestly wasn't expecting to do much of anything. Winter in Omaha can have a paralyzing effect on a person but in this case it worked in my favor. I was just staying up late every night playing piano and watching the snow pile up outside the window. Next thing I knew I had burned through all the firewood in the garage and had more than enough songs for a record. I recorded them quick to get them down but then it just felt right to leave them alone."

Oberst went to ARC, the studio he built with his Bright Eyes bandmate and longtime friend Mike Mogis, to record that music. With the help of engineer Ben Brodin, he recorded all the songs in the span of 48 hours. The results are almost sketch-like in their sparseness, and they ultimately became the songs that comprise Ruminations. These tracks do not have the multi-layered instrumentation of the most recent Bright Eyes and solo albums: This is Oberst alone with his guitar, piano, and harmonica; the songs connect with some of the rough magic and anxious poetry that first brought him to the attention of the world, while their lyrical complexity and concerns make it obvious they could only have been written in the present. Conor Oberst has several live dates scheduled, including intimate solo performances in November and December at venues such as New York's Carnegie Hall and Nashville's Ryman Audtorium.

Tracklist:
01. Tachycardia
02. Barbary Coast (Later)
03. Gossamer Thin
04. Counting Sheep
05. Mamah Borthwick (A Sketch)
06. The Rain Follows the Plow
07. A Little Uncanny
08. Next of Kin
09. You All Loved Him Once
10. Till St. Dymphna Kicks Us Out

foobar2000 1.3.7 / Dynamic Range Meter 1.1.1
log date: 2018-02-21 20:56:20

––––––––––––––––––––––––––––––––––––––––
Analyzed: Conor Oberst / Ruminations
––––––––––––––––––––––––––––––––––––––––

DR Peak RMS Duration Track
––––––––––––––––––––––––––––––––––––––––
DR10 -0.10 dB -12.17 dB 3:38 01-Tachycardia
DR10 -0.10 dB -12.27 dB 4:12 02-Barbary Coast (Later)
DR10 -0.10 dB -11.23 dB 3:35 03-Gossamer Thin
DR10 -0.10 dB -13.28 dB 3:29 04-Counting Sheep
DR12 -0.10 dB -14.60 dB 3:57 05-Mamah Borthwick (A Sketch)
DR10 -0.10 dB -12.54 dB 3:29 06-The Rain Follows the Plow
DR10 -0.05 dB -11.01 dB 4:15 07-A Little Uncanny
DR10 -0.10 dB -12.70 dB 3:26 08-Next of Kin
DR12 -0.10 dB -13.89 dB 3:49 09-You All Loved Him Once
DR10 -0.10 dB -12.06 dB 4:10 10-Till St. Dymphna Kicks Us Out
––––––––––––––––––––––––––––––––––––––––

Number of tracks: 10
Official DR value: DR11

Samplerate: 96000 Hz
Channels: 2
Bits per sample: 24
Bitrate: 2872 kbps
Codec: FLAC
================================================================================


Thanks to the Original customer.