Courtney Marie Andrews - May Your Kindness Remain (2018) [Official Digital Download 24/96]

Posted By: Pisulik
Courtney Marie Andrews - May Your Kindness Remain (2018) [Official Digital Download 24/96]

Courtney Marie Andrews - May Your Kindness Remain (2018)
FLAC (tracks) 24-bit/96 kHz | Time - 42:59 minutes | 841 MB
Studio Master, Official Digital Download | Artwork: Front cover

Courtney Marie Andrews' new full-length album, May Your Kindness Remain, will be released March 23 on Loose in the UK & Europe and Fat Possum Records/Mama Bird Recording Co. in the USA. In advance of the release, the album's title track is premiered as part of NPR Music's "Songs We Love" series. Produced by Mark Howard (Lucinda Williams, Bob Dylan, Emmylou Harris, Tom Waits), the album was recorded over eight days at a rented house-turned-studio in L.A. UK fans fell for Courtney's breakthrough album Honest Life last year, when as the BBC put it, she became an "overnight success" after 10 years trying to break into the business. UK media such as The Guardian, Daily Telegraph and Sunday Times compared her music to the work of classic artists such as Guy Clark, John Prine, Joni Mitchell, Emmylou Harris, Linda Ronstadt and Glen Campbell alongside modern references such as Laura Marling and Julie Byrne. The album became one of the biggest breakthrough records of 2017 in the UK, with 4-5 star reviews from publications including Daily Telegraph, Uncut, Mojo and Q Magazine, as well as reaching #1 on the Official U.K. Americana Chart Independent Album Breakers Chart. In April 2017, Andrews made her debut on the BBC's legendary "LaterWith Jools Holland" programme.

Tracklist:

01. May Your Kindness Remain
02. Lift The Lonely From My Heart
03. Two Cold Nights In Buffalo
04. Rough Around The Edges
05. Border
06. Took You Up
07. This House
08. Kindness Of Strangers
09. I've Hurt Worse
10. Long Road Back To You

foobar2000 1.3.7 / Dynamic Range Meter 1.1.1
log date: 2018-03-22 18:35:24

––––––––––––––––––––––––––––––––––––––––
Analyzed: Courtney Marie Andrews / May Your Kindness Remain
––––––––––––––––––––––––––––––––––––––––

DR Peak RMS Duration Track
––––––––––––––––––––––––––––––––––––––––
DR7 -1.30 dB -11.88 dB 3:54 01-May Your Kindness Remain
DR8 -1.30 dB -11.30 dB 4:57 02-Lift The Lonely From My Heart
DR5 -1.30 dB -8.78 dB 3:29 03-Two Cold Nights In Buffalo
DR8 -1.30 dB -11.30 dB 4:12 04-Rough Around The Edges
DR7 -1.30 dB -10.39 dB 3:55 05-Border
DR8 -1.30 dB -11.72 dB 4:46 06-Took You Up
DR9 -1.30 dB -11.79 dB 4:04 07-This House
DR5 -1.30 dB -9.00 dB 3:30 08-Kindness Of Strangers
DR8 -1.30 dB -10.88 dB 4:15 09-I've Hurt Worse
DR7 -1.30 dB -10.75 dB 6:01 10-Long Road Back To You
––––––––––––––––––––––––––––––––––––––––

Number of tracks: 10
Official DR value: DR7

Samplerate: 96000 Hz
Channels: 2
Bits per sample: 24
Bitrate: 2676 kbps
Codec: FLAC
================================================================================


All thanks go to the original releaser