Tags
Language
Tags

Dagmar Peckova - Exaltatio: Christmas Carols (2020)

Posted By: v3122
Dagmar Peckova - Exaltatio: Christmas Carols (2020)

Dagmar Peckova - Exaltatio: Christmas Carols (2020)
FLAC (Tracks) 24-bit/192 kHz | Official Digital Download | Time: 01:08:02
Classical | Label: Supraphon a.s. | ~ 2.51 Gb

Dagmar Pecková's new Christmas album: 30 carols and songs from Bohemia, Moravia and other European regions.
The highly acclaimed Christmas album Nativitas is now joined by a new festive album, bearing the title "Exaltatio". While in Colloquial Latin the word means "exaltation" and "elation", in Christian theology it has a more profound connotation: "elevation".
The mezzo-soprano Dagmar Pecková has recorded yet another Christmas-themed album, featuring Czech and other European carols and folk songs hailing the Nativity. At Christmas, people feel much closer to one another than at any other time of the year, and it has been so for centuries. The special seasonal atmosphere is what French, German, English and Polish songs have in common. Pecková has again reached for Baroque hymnbooks, in which piety combines with a majestic sublime mood. The album also encompasses much more high-spirited and poetic folk carols. Jaroslav Krček has made stylistic arrangements, whose singular signature relates to Musica Bohemica. The album features several Baroque-inspired pieces he himself has composed. The magic of Christmas evidently continues to be celebrated by contemporary creators.
Dagmar Peckova - Exaltatio: Christmas Carols (2020):

Tracklist:

01 - Intermezzo 1 (00:01:11)
02 - Legenda o narození Páně (00:03:31)
03 - Intermezzo 2 (00:02:36)
04 - Legenda o Marii (00:03:26)
05 - Ein Kind geborn zu Bethlehem (00:01:39)
06 - Als ich bei meinen Schafen wach (00:02:16)
✧ 07 - Noël nouvelet (00:02:16)
✧ 08 - Deck the Halls (00:01:40)
✧ 09 - Es ist ein Ros' entsprungen (00:03:00)
✧ 10 - Una pandereta suena (00:01:51)
✧ 11 - Buďme všetci potěšeni (00:01:38)
✧ 12 - Jezus malusienki (00:01:28)
✧ 13 - Bůh se nyní narodil (00:02:30)
✧ 14 - Veselým hlasem zpívejme (00:02:39)
✧ 15 - Rok nový zase k nám přišel (00:01:43)
✧ 16 - Rosu dejte, ó, nebesa (00:02:20)
✧ 17 - Sláva buď, pokoj na nebi (00:02:56)
✧ 18 - Prolomte se, nebesa (00:02:51)
✧ 19 - Dítě se nám narodilo (00:02:17)
✧ 20 - Intermezzo 3 (00:01:30)
✧ 21 - Poslyšte, křesťané (00:02:28)
✧ 22 - Dej Bůh štěstí (00:01:35)
✧ 23 - Usnula, usnula, ja, Maria v ráj (00:04:27)
✧ 24 - Krásná panna (00:03:06)
✧ 25 - Máte-li co, poneste (00:02:30)
✧ 26 - Zvěstování Panně Marii (00:02:50)
✧ 27 - Pochválen buď Ježíš Kristus (00:02:08)
✧ 28 - Štědrej večer nastal (00:01:59)
✧ 29 - Den přeslavný jest k nám přišel (00:01:25)

foobar2000 1.4.2 / Dynamic Range Meter 1.1.1
log date: 2021-12-12 21:44:12

––––––––––––––––––––––––––––––––––––––––
Analyzed: Dagmar Peckova / Exaltatio - Christmas Carols (1-16)
Musica Bohemica / Exaltatio - Christmas Carols (17-19)
Vincenc Ignác Novotný / Exaltatio - Christmas Carols (20-29)
––––––––––––––––––––––––––––––––––––––––

DR Peak RMS Duration Track
––––––––––––––––––––––––––––––––––––––––
DR13 -2.70 dB -20.38 dB 3:32 02-Legenda o narození Páně
DR11 -3.34 dB -21.41 dB 3:26 04-Legenda o Marii
DR12 -1.18 dB -19.07 dB 1:40 05-Ein Kind geborn zu Bethlehem
DR14 -0.30 dB -19.44 dB 2:17 06-Als ich bei meinen Schafen wacht
DR11 -4.46 dB -19.01 dB 2:17 07-Noël nouvelet
DR12 -5.13 dB -21.33 dB 3:01 09-Es ist ein Ros' entsprungen
DR13 -1.46 dB -18.69 dB 1:52 10-Una pandereta suena
DR11 -3.32 dB -19.43 dB 1:29 12-Jezus malusienki
DR12 -0.70 dB -19.27 dB 2:39 14-Veselým hlasem zpívejme
DR11 -1.96 dB -17.69 dB 2:20 16-Rosu dejte, ó, nebesa
DR12 -0.30 dB -18.74 dB 2:56 17-Sláva buď, pokoj na nebi
DR12 -5.96 dB -23.31 dB 4:27 23-Usnula, usnula, ja, Maria v ráji
DR13 -1.94 dB -18.58 dB 3:07 24-Krásná panna
DR11 -2.38 dB -18.42 dB 2:50 26-Zvěstování Panně Marii
DR10 -10.52 dB -22.96 dB 2:00 28-Štědrej večer nastal
DR11 -0.18 dB -13.87 dB 1:25 29-Den přeslavný jest k nám přišel
DR11 -5.27 dB -21.77 dB 1:12 01-Intermezzo 1
DR11 -7.68 dB -22.64 dB 2:37 03-Intermezzo 2
DR11 -7.13 dB -22.26 dB 1:30 20-Intermezzo 3
DR12 -0.23 dB -17.60 dB 1:40 08-Deck the Halls
DR12 -2.52 dB -20.40 dB 1:38 11-Buďme všetci potěšeni
DR12 -2.87 dB -19.47 dB 2:31 13-Bůh se nyní narodil
DR13 -3.42 dB -20.33 dB 1:44 15-Rok nový zase k nám přišel
DR14 -1.46 dB -18.95 dB 2:52 18-Prolomte se, nebesa
DR12 -1.40 dB -17.97 dB 2:17 19-Dítě se nám narodilo
DR12 -3.28 dB -20.93 dB 2:29 21-Poslyšte, křesťané
DR12 -2.13 dB -17.13 dB 1:36 22-Dej Bůh štěstí
DR14 -0.85 dB -20.52 dB 2:31 25-Máte-li co, poneste
DR15 -0.90 dB -19.36 dB 2:09 27-Pochválen buď Ježíš Kristus
––––––––––––––––––––––––––––––––––––––––

Number of tracks: 29
Official DR value: DR12

Samplerate: 192000 Hz
Channels: 2
Bits per sample: 24
Bitrate: 5162 kbps
Codec: FLAC

All thanks go to the original releaser

Download Dagmar Peckova - Exaltatio: Christmas Carols (2020):