Daniela Cammarano & Alessandro Deljavan - Grieg: Complete Violin Sonatas (2015) [TR24][OF]

Posted By: SERTiL
Daniela Cammarano & Alessandro Deljavan - Grieg: Complete Violin Sonatas (2015) [TR24][OF]

Daniela Cammarano & Alessandro Deljavan - Grieg: Complete Violin Sonatas
Classical | FLAC (tracks) 24-bit/88.2 kHz | 76:41 min | 1.21 GB | Digital booklet
Label: Aevea | Tracks: 09 | Rls.date: 2015

The 3 Violin Sonatas by Edvard Grieg are a mixture of German and Austrian traditions with the Nordic folk. The experience at the Leipzig Conservatory, where the strong influence of Felix Mendelssohn Bartholdy and Robert Schumann was felt, and the trips to Italy, especially Rome, where Grieg met Franz Liszt, contributed greatly to the formation of the style of the Norwegian composer. Similarly of crucial importance were the years he spent in Copenhagen where he completed his studies under the guidance of the Danish composer Niels W. Gade.
The complete Sonatas for violin and piano are included in this album signed by the well-matched couple Cammarano-Deljavan who has already recorded the works by Johannes Brahms and Anton Rubinstein.

TRACKLIST

Edvard Grieg: Violin Sonata No. 1 in F Major, Op. 8
01. I. Allegro con brio
02. II. Allegretto quasi andantino
03. III. Allegro molto vivace

Edvard Grieg: Violin Sonata No. 2 in G Major, Op. 13
04. I. Lento doloroso - Allegro vivace
05. II. Allegretto tranquillo
06. III. Allegro animato

Edvard Grieg: Violin Sonata No. 3 in C Minor, Op. 45
07. I. Allegro molto ed appassionato
08. II. Allegretto espressivo alla romanza
09. III. Allegro animato

foobar2000 1.3.7 / Замер динамического диапазона (DR) 1.1.1
Дата отчёта: 2017-02-09 13:07:44

––––––––––––––––––––––––––––––––––––––––
Анализ: Duo Cammarano-Deljavan, Ensemble - Edvard Grieg, Composer / Duo Cammarano-Deljavan : Grieg: The Violin Sonatas, Opp. 18, 13 & 45
––––––––––––––––––––––––––––––––––––––––

DR Пики RMS Продолжительность трека
––––––––––––––––––––––––––––––––––––––––
DR14 -4.98 дБ -25.68 дБ 10:04 1-Diffundite flores:Violin Sonata No. 1 in F Major, Op. 8: I. Allegro con brio
DR15 -4.73 дБ -26.22 дБ 5:41 2-Diffundite flores:Violin Sonata No. 1 in F Major, Op. 8: II. Allegretto quasi andantino
DR15 -4.55 дБ -24.44 дБ 9:41 3-Diffundite flores:Violin Sonata No. 1 in F Major, Op. 8: III. Allegro molto vivace
DR15 0.00 дБ -20.70 дБ 10:22 4-Salve praetiosum:Violin Sonata No. 2 in G Major, Op. 13: I. Lento doloroso - Allegro vivace
DR14 -0.08 дБ -20.36 дБ 7:31 5-Salve praetiosum:Violin Sonata No. 2 in G Major, Op. 13: II. Allegretto tranquillo
DR14 -0.99 дБ -20.52 дБ 6:24 6-Salve praetiosum:Violin Sonata No. 2 in G Major, Op. 13: III. Allegro animato
DR14 -0.04 дБ -19.93 дБ 10:25 7-O lucidissima dies:Violin Sonata No. 3 in C Minor, Op. 45: I. Allegro molto ed appassionato
DR15 -0.19 дБ -23.61 дБ 7:58 8-O lucidissima dies:II. Allegretto espressivo alla romanza
DR15 0.00 дБ -19.96 дБ 8:40 9-O lucidissima dies:Violin Sonata No. 3 in C Minor, Op. 45: III. Allegro animato
––––––––––––––––––––––––––––––––––––––––

Количество треков: 9
Реальные значения DR: DR14

Частота: 88200 Гц
Каналов: 2
Разрядность: 24
Битрейт: 2349 кбит/с
Кодек: FLAC
================================================================================


Thanks to the Original customer.