Dave Holland - Another Land (2021) [Official Digital Download 24/96]

Posted By: pyatak
Dave Holland - Another Land (2021) [Official Digital Download 24/96]

Dave Holland - Another Land (2021) [Official Digital Download 24/96]
FLAC (tracks) 24-bit/96 kHz | Front Cover | Time - 67:40 minutes | 1,24 GB
Jazz | Label: Edition Records, Official Digital Download

Another Land is the new album from the all-star trio featuring Dave Holland, Kevin Eubanks and Obed Calvaire and a power-packed set of originals. This is a potent studio set of fluid themes developed by the band and forged in the furnace of live performance. During the live shows that preceded the recording of Another Land, Dave explains “we were doing a continuous set, once we started we very rarely stopped, we just kept going,”. The Guardian described the shows as a “blues-fuelled inferno summoning the spirit of Hendrix”

Throughout his career, Dave Holland has established a reputation for making his bands a proving ground for promising young instrumentalists, but his latest trio is a true all-star assemblage of jazz heavyweights, all established bandleaders and composers, each representing the world standard on their instrument. Released on limited edition double vinyl, CD and hi-res download, this is a power-packed set that reunites Dave with the guitar work of Kevin Eubanks, whose searing, soulful approach was last heard on Dare 2 as part of the Prism project. Eubanks was also key to the muscular quartet that recorded Holland’s seminal 1990 ECM release Extensions, and this new band is yet another example of Holland’s brilliance at building ensembles that are greater than the sum of their formidable parts.

TRACKLIST

1. Dave Holland - Grave Walker
2. Dave Holland - Another Land
3. Dave Holland - Gentle Warrior
4. Dave Holland - 20 20
5. Dave Holland - Quiet Fire
6. Dave Holland - Mashup
7. Dave Holland - Passing Time
8. Dave Holland - The Village
9. Dave Holland - Bring It Back Home

foobar2000 1.6.2 / Dynamic Range Meter 1.1.1
log date: 2021-05-27 23:41:06

––––––––––––––––––––––––––––––––––––––––
Analyzed: Dave Holland / Another Land
––––––––––––––––––––––––––––––––––––––––

DR Peak RMS Duration Track
––––––––––––––––––––––––––––––––––––––––
DR10 -0.15 dB -11.74 dB 7:00 01-Grave Walker
DR12 -0.15 dB -16.40 dB 9:19 02-Another Land
DR10 -0.15 dB -12.20 dB 8:46 03-Gentle Warrior
DR9 -0.15 dB -12.24 dB 8:24 04-20 20
DR11 -7.49 dB -23.82 dB 4:39 05-Quiet Fire
DR9 -0.15 dB -10.99 dB 6:36 06-Mashup
DR12 -0.15 dB -14.81 dB 8:08 07-Passing Time
DR9 -0.15 dB -12.03 dB 8:48 08-The Village
DR10 -0.15 dB -12.41 dB 6:00 09-Bring It Back Home
––––––––––––––––––––––––––––––––––––––––

Number of tracks: 9
Official DR value: DR10

Samplerate: 96000 Hz
Channels: 2
Bits per sample: 24
Bitrate: 2553 kbps
Codec: FLAC
================================================================================



Thanks to the Original customer.