Deep Purple ‎– Burn (1974/2018) [LP,Limited Edition,180 Gram,DSD128]

Posted By: Discograf_man
Deep Purple ‎– Burn (1974/2018) [LP,Limited Edition,180 Gram,DSD128]

Deep Purple ‎– Burn (1974/2018) [LP,Limited Edition,180 Gram,DSD128]
Hard Rock, Psychedelic Rock, Rock | DSD128 (*.dsf, tracks), 1-bit/5.64 MHz
Run Time: 00:42:02 | 3.49 GB + 5% Recovery
Label: Purple Records | Release Year: 2018

Deep Purple and Universal Music Group announce a very special limited edition collection of reissues of classic Deep Purple albums from 1972-77. Studio albums Machine Head [1972], Who Do We Think We Are? [1973], Burn [1974], Stormbringer [1974] & Come Taste the Band [1975] receive brand new reissue treatment, as well as historic live packages Made in Japan [1972], Made in Europe [1976] & Last Concert in Japan [1977].
All albums have been cut from new digital transfers of the original master tapes at Abbey Road Studios, cut to heavyweight 180-gram purple vinyl. Artwork has been faithfully replicated to match the original pressings in conjunction with the band. All vinyl albums also come with download codes and is next in a line-up of classic Deep Purple reissues coming from Universal Music.
Burn - The band’s first album with now heavy Rock legends, Vocalist, David Coverdale and bassist, Vocalist Glenn Hughes is seen as a rock classic and contains Fan favorites ‘Burn’ and ‘Might Just Take Your Life’
Deep Purple ‎– Burn (1974/2018) [LP,Limited Edition,180 Gram,DSD128]

Tracklist:

Side 1

A1 Burn 6:00
A2 Might Just Take Your Life 4:36
A3 Lay Down, Stay Down 4:15
A4 Sail Away 5:48

Side 2
B1 You Fool No One 4:47
B2 What's Goin' On Here 4:55
B3 Mistreated 3:51
B4 "A" 200 4:47

Deep Purple ‎– Burn (1974/2018) [LP,Limited Edition,180 Gram,DSD128]


Credits:

Bass Guitar – Glenn Hughes
Drums – Ian Paice
Keyboards – Jon Lord
Lead Guitar – Ritchie Blackmore
Vocals – David Coverdale (tracks: A1 to B4), Glenn Hughes (tracks: A1 to B2, B4)

foobar2000 1.4 / Dynamic Range Meter 1.1.1
log date: 2019-08-21 18:25:50

––––––––––––––––––––––––––––––––––––––––
Analyzed: Deep Purple / Burn
––––––––––––––––––––––––––––––––––––––––

DR Peak RMS Duration Track
––––––––––––––––––––––––––––––––––––––––
DR13 -4.98 dB -22.90 dB 6:02 ?-A1.Burn
DR13 -6.59 dB -22.04 dB 4:39 ?-A2.Might Just Take Your Life
DR14 -6.01 dB -22.60 dB 4:22 ?-A3.Lay Down, Stay Down
DR13 -6.73 dB -22.28 dB 5:47 ?-A4.Sail Away
DR12 -6.00 dB -20.07 dB 4:47 ?-B1.You Fool No One
DR12 -6.32 dB -21.26 dB 4:57 ?-B2.What's Goin' On Here
DR12 -6.88 dB -21.97 dB 7:26 ?-B3.Mistreated
DR12 -6.73 dB -20.83 dB 4:03 ?-B4."A" 200
––––––––––––––––––––––––––––––––––––––––

Number of tracks: 8
Official DR value: DR13

Samplerate: 5644800 Hz / PCM Samplerate: 88200 Hz
Channels: 2
Bits per sample: 1
Bitrate: 11290 kbps
Codec: DSD128
================================================================================

Thanks to the original releaser!