Tags
Language
Tags

Deep Purple ‎– In Rock (1970/2018) [LP,Limited Edition,180 Gram,DSD128]

Posted By: Discograf_man
Deep Purple ‎– In Rock (1970/2018) [LP,Limited Edition,180 Gram,DSD128]

Deep Purple ‎– In Rock (1970/2018) [LP,Limited Edition,180 Gram,DSD128]
Hard Rock, Psychedelic Rock, Rock | DSD128 (*.dsf, tracks), 1-bit/5.64 MHz
Run Time: 00:43:23 | 3.60 GB + 5% Recovery
Label: Purple Records | Release Year: 2018

Deep Purple in Rock is the fourth studio album by English rock band Deep Purple, released in June 1970. It was the first studio album recorded by the Mark II line-up of Ian Gillan, Ritchie Blackmore, Roger Glover, Jon Lord and Ian Paice.
The album was the band's breakthrough album in Europe and peaked at No. 4 in the UK, remaining in the charts for months (the band's prior MK I albums had been much better received in the United States and Canada than in their homeland). An accompanying single, "Black Night" reached No. 2. The album was supported by the successful In Rock World Tour, which lasted 15 months. The album has continued to attract critical praise as a key early example of the hard rock and heavy metal genres.
Deep Purple ‎– In Rock (1970/2018) [LP,Limited Edition,180 Gram,DSD128]

Tracklist:

Side 1

A1 Speed King
A2 Bloodsucker
A3 Child In Time

Side 2
B1 Flight Of The Rat
B2 Into The Fire
B3 Living Wreck
B4 Hard Lovin’ Man

Deep Purple ‎– In Rock (1970/2018) [LP,Limited Edition,180 Gram,DSD128]


Credits:

Ritchie Blackmore – guitar
Ian Gillan – vocals
Roger Glover – bass
Jon Lord – organ
Ian Paice – drums

foobar2000 1.4 / Dynamic Range Meter 1.1.1
log date: 2019-08-30 15:54:31

––––––––––––––––––––––––––––––––––––––––
Analyzed: Deep Purple / In Rock
––––––––––––––––––––––––––––––––––––––––

DR Peak RMS Duration Track
––––––––––––––––––––––––––––––––––––––––
DR11 -6.07 dB -19.26 dB 5:50 ?-A1.Speed King
DR11 -5.76 dB -19.31 dB 4:11 ?-A2.Bloodsucker
DR11 -5.15 dB -18.77 dB 10:17 ?-A3.Child In Time
DR12 -5.73 dB -19.73 dB 7:53 ?-B1.Flight Of The Rat
DR12 -6.62 dB -19.63 dB 3:30 ?-B2.Into The Fire
DR12 -5.48 dB -20.32 dB 4:32 ?-B3.Living Wreck
DR11 -6.63 dB -20.38 dB 7:09 ?-B4.Hard Lovin’ Man
––––––––––––––––––––––––––––––––––––––––

Number of tracks: 7
Official DR value: DR11

Samplerate: 5644800 Hz / PCM Samplerate: 88200 Hz
Channels: 2
Bits per sample: 1
Bitrate: 11290 kbps
Codec: DSD128
================================================================================

Thanks to the original releaser!