Tags
Language
Tags

Dena DeRose - Ode to the Road (2020) [Official Digital Download 24/96]

Posted By: pyatak
Dena DeRose - Ode to the Road (2020) [Official Digital Download 24/96]

Dena DeRose - Ode to the Road (2020) [Official Digital Download 24/96]
FLAC (tracks) 24-bit/96 kHz | Front Cover | Time - 01:04:17 minutes | 1,22 GB
Jazz | Label: HighNote Records, Official Digital Download

2020 release. Dena DeRose's music is like a cool breeze; she's wry, wise, impeccably musical, no-nonsense, and fun. After her three decades as a pianist-singer, DeRose's voice and her fingers are on the most harmonious of terms. She's not afraid of simplicity; DeRose has no time for hollow sentiment, nor does she feel a compulsion to outsmart the makers of the Great American Songbook. Her approach to jazz resides mainly in her swinging rhythm and pianistic phrasing. Her eleventh album as a leader takes it's name from a breezy tune, full of hip changes, that was composed by Alan Broadbent. The lyrics, provided by the legendary Mark Murphy, resonated deeply with DeRose since when she's not teaching at the University of Music and Performing Arts in Graz, Austria, she's frequently on tour. Appropriately enough she is joined by three other HighNote artists-singer Sheila Jordan, saxophonist Houston Person, and trumpeter Jeremy Pelt-all of whom have appeared with DeRose on her global travels. With her long-time rhythm section of Martin Wind and Matt Wilson DeRose delivers recording that celebrates the life of the jazz artist and the friendships they make.

TRACKLIST

1. Dena DeRose - Ode to the Road
2. Dena DeRose - Nothing Like You
3. Dena DeRose - Don't Ask Why
4. Dena DeRose - All God's Chillun Got Rhythm / Little Willie Leaps
5. Dena DeRose - That Second Look
6. Dena DeRose - Small Day Tomorrow
7. Dena DeRose - The Way We Were
8. Dena DeRose - Cross Me Off Your List
9. Dena DeRose - I Have the Feeling I've Been Here Before
10. Dena DeRose - A Tip of the Hat
11. Dena DeRose - The Days of Wine and Roses

foobar2000 1.3.16 / Dynamic Range Meter 1.1.1
log date: 2020-05-29 21:08:42

––––––––––––––––––––––––––––––––––––––––
Analyzed: Dena DeRose / Ode to the Road
––––––––––––––––––––––––––––––––––––––––

DR Peak RMS Duration Track
––––––––––––––––––––––––––––––––––––––––
DR10 -0.61 dB -12.87 dB 4:01 01-Ode to the Road
DR11 -0.61 dB -13.38 dB 5:35 02-Nothing Like You
DR12 -0.61 dB -16.08 dB 6:14 03-Don't Ask Why
DR10 -0.61 dB -12.50 dB 6:47 04-All God's Chillun Got Rhythm / Little Willie Leaps
DR12 -0.61 dB -14.87 dB 5:26 05-That Second Look
DR11 -0.61 dB -14.60 dB 5:28 06-Small Day Tomorrow
DR10 -0.61 dB -13.60 dB 6:28 07-The Way We Were
DR11 -0.61 dB -13.53 dB 6:06 08-Cross Me Off Your List
DR12 -0.61 dB -16.35 dB 5:55 09-I Have the Feeling I've Been Here Before
DR13 -0.61 dB -15.12 dB 5:29 10-A Tip of the Hat
DR11 -0.61 dB -13.51 dB 6:48 11-The Days of Wine and Roses
––––––––––––––––––––––––––––––––––––––––

Number of tracks: 11
Official DR value: DR11

Samplerate: 96000 Hz
Channels: 2
Bits per sample: 24
Bitrate: 2845 kbps
Codec: FLAC
================================================================================



Thanks to the Original customer.