Tags
Language
Tags

Destruction - Diabolical (2022) [Official Digital Download]

Posted By: ciklon5
Destruction - Diabolical (2022) [Official Digital Download]

Destruction - Diabolical (2022) [Official Digital Download]
FLAC (tracks), Lossless [24bit-44kHz] | 47:21 | 601 Mb
Genre: Metal / Label: Napalm Records Handels GmbH

Formé en 1982, Destruction est considéré comme l'un des trois rois du thrash metal allemand avec Kreator et Sodom. Ce titre honorifique et la présence d'éléments de death metal dans sa musique ne suffit pas à faire de Destruction un cador du genre. Depuis 1985 et son premier album Infernal Overkill, Destruction n'est en effet crédité d'aucun coup d'éclat. Après une longue pause entre 1990 et 1999, Destruction revient aux affaires et reste fidèle à un style que l'on peut qualifier de basique. Spiritual Genocide en 2012 s'intègre sans mal dans une discographie plutôt linéaire.

Track List:
[01:13] 01. Destruction - Under the Spell
[04:09] 02. Destruction - Diabolical
[04:17] 03. Destruction - No Faith in Humanity
[04:08] 04. Destruction - Repent Your Sins
[03:34] 05. Destruction - Hope Dies Last
[04:09] 06. Destruction - The Last of a Dying Breed
[03:45] 07. Destruction - State of Apathy
[04:45] 08. Destruction - Tormented Soul
[03:49] 09. Destruction - Servant of the Best
[03:54] 10. Destruction - The Lonely Wolf
[03:04] 11. Destruction - Ghost from the Past
[03:59] 12. Destruction - Whorefication
[02:29] 13. Destruction - City Baby Attacked by Rats

foobar2000 1.6.10 / Dynamic Range Meter 1.1.1
log date: 2022-04-07 16:55:30

––––––––––––––––––––––––––––––––––––––––
Analyzed: Destruction / Diabolical
––––––––––––––––––––––––––––––––––––––––

DR Peak RMS Duration Track
––––––––––––––––––––––––––––––––––––––––
DR5 -1.33 dB -9.10 dB 1:13 01-Under the Spell
DR6 -0.92 dB -7.72 dB 4:09 02-Diabolical
DR5 -1.13 dB -7.40 dB 4:17 03-No Faith in Humanity
DR5 -1.13 dB -7.09 dB 4:09 04-Repent Your Sins
DR5 -1.13 dB -7.52 dB 3:35 05-Hope Dies Last
DR5 -1.13 dB -7.15 dB 4:10 06-The Last of a Dying Breed
DR5 -1.13 dB -6.94 dB 3:46 07-State of Apathy
DR5 -1.13 dB -7.37 dB 4:46 08-Tormented Soul
DR5 -1.13 dB -7.18 dB 3:49 09-Servant of the Best
DR5 -1.13 dB -7.27 dB 3:55 10-The Lonely Wolf
DR6 -1.13 dB -7.54 dB 3:04 11-Ghost from the Past
DR6 -1.13 dB -7.64 dB 4:00 12-Whorefication
DR5 -1.13 dB -7.81 dB 2:29 13-City Baby Attacked by Rats
––––––––––––––––––––––––––––––––––––––––

Number of tracks: 13
Official DR value: DR5

Samplerate: 44100 Hz
Channels: 2
Bits per sample: 24
Bitrate: 1703 kbps
Codec: FLAC
================================================================================