Tags
Language
Tags

Diana Ross - Lady Sings The Blues (1972/2021) [Official Digital Download 24/192]

Posted By: pyatak
Diana Ross - Lady Sings The Blues (1972/2021) [Official Digital Download 24/192]

Diana Ross - Lady Sings The Blues (1972/2021) [Official Digital Download 24/192]
FLAC (tracks) 24-bit/192 kHz | Front Cover | Time - 70:25 minutes | 3,06 GB
Soundtracks, Soul, Jazz | Label: Studio Master, Official Digital Download

After being leader of the #1 Female Group of All Time (to date a half century) and #1 American Vocal Group of the 60s, "Diana Ross & The Supremes", Diana completely flipped the script embracing the jazz of Billie Holiday, this soundtrack mesmerizes. Along with reviving interest in Holiday, Diana makes these classics her own. Honestly, by 1972, I was only vaguely familiar with Billie's music. I eventually grew to love and know the entire soundtrack. Coming off a stellar career with The Supremes, this album alone gave her a full new repertoire of material. By 1972, Diana had earned 3 Gold singles including the #1/Grammy nominated reworking of "Ain't No Mountain High Enough". She no longer would have to rely on her massive body of work with The Supremes. Standouts includes the "Great American Songbook Standards", "My Man", "God Bless the Child" and "Good Morning Heartache". The movie and the soundtrack endured over a year on the charts and in movie theaters in pre-home video era. The album hit #1 for 2 weeks, certified multi-platinum and spawning 2 more jazz-influenced albums for Diana.
I would literally listen to all 4-sides of the vinyl album at least once a week for over a year.
It remains a defining album credited with reviving interest in Billie Holiday's career. It also remains an important segment of her live shows.

TRACKLIST

1. Diana Ross - The Arrest
2. Diana Ross - Lady Sings The Blues
3. Diana Ross - Baltimore Brothel
4. Diana Ross - Billie Sneaks Into Dean & Dean's / Swingin' Uptown
5. Blinky Williams - T'Ain't Nobody's Bizness If I Do
6. Diana Ross - Big Ben / C.C. Rider
7. Diana Ross - All Of Me (With Dialogue)
8. Diana Ross - The Man I Love
9. Diana Ross - Them There Eyes
10. Diana Ross - Gardenias From Louis
11. Diana Ross - Cafe Manhattan / Had You Been Around / Love Theme
12. Diana Ross - Any Happy Home
13. Diana Ross - I Cried For You (Now It's Your Turn To Cry Over Me) (Pt. 1)
14. Diana Ross - Billie & Harry / Don't Explain
15. Diana Ross - Mean To Me
16. Diana Ross - Fine And Mellow (Pt. 1)
17. Diana Ross - What A Little Moonlight Can Do
18. Diana Ross - Louis Visits Billie On Tour / Love Theme
19. Diana Ross - Cafe Manhattan Party
20. Diana Ross - Persuasion/ T'Ain't Nobody's Bizness If I Do
21. Diana Ross - Agent's Office
22. Diana Ross - Love Is Here To Stay
23. Diana Ross - Fine And Mellow (Pt. 2)
24. Diana Ross - Lover Man (Oh, Where Can You Be)
25. Diana Ross - You've Changed
26. Diana Ross - Gimme A Pigfoot (And A Bottle Of Beer)
27. Diana Ross - Good Morning Heartache
28. Diana Ross - All Of Me (Without Dialogue)
29. Michel Legrand - Love Theme
30. Diana Ross - My Man (Mon Homme)
31. Diana Ross - Don't Explain
32. Diana Ross - I Cried For You (Now It's Your Turn To Cry For Me) (Pt. 2)
33. Diana Ross - Strange Fruit
34. Diana Ross - God Bless The Child
35. Michel Legrand - Closing Theme

foobar2000 1.6.2 / Dynamic Range Meter 1.1.1
log date: 2021-01-27 11:25:45

––––––––––––––––––––––––––––––––––––––––
Analyzed: Blinky Williams / Lady Sings The Blues (1)
Diana Ross / Lady Sings The Blues (2-33)
Michel Legrand / Lady Sings The Blues (34-35)
––––––––––––––––––––––––––––––––––––––––

DR Peak RMS Duration Track
––––––––––––––––––––––––––––––––––––––––
DR11 -0.30 dB -14.24 dB 1:06 05-T'Ain't Nobody's Bizness If I Do
DR17 -0.30 dB -19.04 dB 0:15 01-The Arrest
DR9 -5.67 dB -18.85 dB 1:03 02-Lady Sings The Blues
DR13 -0.65 dB -19.04 dB 0:26 03-Baltimore Brothel
DR10 -0.30 dB -11.93 dB 0:53 04-Billie Sneaks Into Dean & Dean's / Swingin' Uptown
DR13 -0.30 dB -15.79 dB 2:32 06-Big Ben / C.C. Rider
DR12 -0.30 dB -15.87 dB 2:19 07-All Of Me (With Dialogue)
DR11 -0.30 dB -14.52 dB 2:27 08-The Man I Love
DR10 -0.30 dB -12.69 dB 1:05 09-Them There Eyes
DR16 -0.30 dB -19.38 dB 2:04 10-Gardenias From Louis
DR15 -0.30 dB -19.45 dB 3:33 11-Cafe Manhattan / Had You Been Around / Love Theme
DR12 -0.30 dB -13.74 dB 0:37 12-Any Happy Home
DR9 -0.30 dB -11.83 dB 0:38 13-I Cried For You (Now It's Your Turn To Cry Over Me) (Pt. 1)
DR14 -0.30 dB -17.96 dB 2:13 14-Billie & Harry / Don't Explain
DR11 -0.30 dB -13.46 dB 1:18 15-Mean To Me
DR11 -0.30 dB -12.78 dB 0:46 16-Fine And Mellow (Pt. 1)
DR11 -0.30 dB -12.79 dB 2:10 17-What A Little Moonlight Can Do
DR14 -0.30 dB -18.77 dB 3:48 18-Louis Visits Billie On Tour / Love Theme
DR17 -0.30 dB -21.51 dB 1:38 19-Cafe Manhattan Party
DR11 -0.30 dB -13.76 dB 3:06 20-Persuasion/ T'Ain't Nobody's Bizness If I Do
DR15 -4.06 dB -23.46 dB 1:09 21-Agent's Office
DR11 -0.30 dB -13.23 dB 1:58 22-Love Is Here To Stay
DR10 -0.30 dB -12.58 dB 2:56 23-Fine And Mellow (Pt. 2)
DR13 -0.30 dB -15.18 dB 3:22 24-Lover Man (Oh, Where Can You Be)
DR13 -0.30 dB -16.23 dB 2:34 25-You've Changed
DR13 -0.30 dB -14.97 dB 2:07 26-Gimme A Pigfoot (And A Bottle Of Beer)
DR13 -0.30 dB -16.57 dB 2:21 27-Good Morning Heartache
DR12 -0.30 dB -13.73 dB 2:06 28-All Of Me (Without Dialogue)
DR12 -0.30 dB -17.03 dB 3:27 30-My Man (Mon Homme)
DR13 -0.30 dB -16.99 dB 2:11 31-Don't Explain
DR11 -0.30 dB -13.03 dB 2:13 32-I Cried For You (Now It's Your Turn To Cry For Me) (Pt. 2)
DR14 -0.30 dB -19.31 dB 3:37 33-Strange Fruit
DR12 -0.30 dB -15.29 dB 2:43 34-God Bless The Child
DR13 -0.30 dB -16.46 dB 2:53 29-Love Theme
DR11 -0.30 dB -13.00 dB 1:08 35-Closing Theme
––––––––––––––––––––––––––––––––––––––––

Number of tracks: 35
Official DR value: DR12

Samplerate: 192000 Hz
Channels: 2
Bits per sample: 24
Bitrate: 6101 kbps
Codec: FLAC
================================================================================



Thanks to the Original customer.