Diego Riedemann & Sebastian Wolfgruber - 4M (2019) [Official Digital Download]

Posted By: Pisulik
Diego Riedemann & Sebastian Wolfgruber - 4M (2019) [Official Digital Download]

Diego Riedemann & Sebastian Wolfgruber - 4M (2019)
FLAC (tracks) 24-bit/44.1 kHz | Time - 50:17 minutes | 310 MB
Studio Master, Official Digital Download | Artwork: Front cover

Diego Riedemann was born in Santiago de Chile, 1981. Currently based in Munich, since 2015 up to date, he has been performing in several venues in Europe (Paris, Vienna, Berlin, etc). Before moving to Germany, he performed in Chile and Latin America: Thelonious Connection International Jazz Fest (2016), "XV Valdivia Jazz Fest" (2015), "5 de Mayo Fest" (Puebla - Mexico, 2012), IV & V El Bosque Jazz Fest (2008 and 2009), "I Quilicura Jazz Festival" (2009), etc. On 2014, his debut album, "Shah Mat" won the "Pulsar Awards 2015" for Best Jazz-Fusion Artist. "4M" is the third CD of Diego Riedemann, after Shah Mat (2014) and Sinke (2016). Recorded in Munich between 2017 and 2018 with the collaboration of different musicians of the german scene, it includes four original tunes and three jazz standards.

Tracklist:

01. Alone Together
02. Just Friends
03. It Never Entered My Mind
04. M
05. Billi
06. TiktaaliK
07. Moksha

foobar2000 1.3.7 / Dynamic Range Meter 1.1.1
log date: 2019-11-21 23:29:46

––––––––––––––––––––––––––––––––––––––––
Analyzed: Diego Riedemann / 4M
––––––––––––––––––––––––––––––––––––––––

DR Peak RMS Duration Track
––––––––––––––––––––––––––––––––––––––––
DR9 -1.00 dB -12.39 dB 8:36 01-Alone Together
DR10 -1.00 dB -13.13 dB 7:11 02-Just Friends
DR10 -1.00 dB -13.70 dB 7:51 03-It Never Entered My Mind
DR10 -1.00 dB -13.40 dB 4:13 04-M
DR9 -1.00 dB -13.20 dB 7:55 05-Billi
DR8 -1.00 dB -13.64 dB 7:43 06-TiktaaliK
DR9 -1.00 dB -12.69 dB 6:51 07-Moksha
––––––––––––––––––––––––––––––––––––––––

Number of tracks: 7
Official DR value: DR9

Samplerate: 44100 Hz
Channels: 2
Bits per sample: 24
Bitrate: 894 kbps
Codec: FLAC
================================================================================


All thanks go to the original releaser