Tags
Language
Tags

Dizzy Reece - Star Bright (1960) [2021, Remastered, 24-bit/48 kHz]

Posted By: v3122
Dizzy Reece - Star Bright (1960) [2021, Remastered, 24-bit/48 kHz]

Dizzy Reece - Star Bright (1960)
FLAC (Tracks) 24-bit/48 kHz | Official Digital Download | Time: 00:39:32
Jazz, Hard Bop | Label: Music Manager | ~ 397 Mb

Star Bright is an album by Jamaican-born jazz trumpeter Dizzy Reece, featuring performances recorded in 1959 shortly after his move to New York City and released on the Blue Note label. So far, it has been released on CD only in Japan…

~ wiki
PDizzy Reece - Star Bright (1960):

Tracklist:

01 - The Rake 06:06
02 - I'll Close My Eyes 05:57
03 - Groovesville 08:08
04 - The Rebound 06:49
05 - I Wished on the Moon 06:51
06 - A Variation on Monk 05:41

foobar2000 1.4.3 / Dynamic Range Meter 1.1.1
log date: 2021-08-23 19:19:39

––––––––––––––––––––––––––––––––––––––––
Analyzed: Dizzy Reece / Star Bright
––––––––––––––––––––––––––––––––––––––––

DR Peak RMS Duration Track
––––––––––––––––––––––––––––––––––––––––
DR11 -0.15 dB -13.24 dB 6:06 01-The Rake
DR11 -0.14 dB -14.31 dB 5:57 02-I'll Close My Eyes
DR11 -0.14 dB -13.53 dB 8:08 03-Groovesville
DR10 -0.19 dB -13.03 dB 6:49 04-The Rebound
DR12 -0.23 dB -15.55 dB 6:51 05-I Wished on the Moon
DR11 -0.10 dB -13.77 dB 5:42 06-A Variation on Monk
––––––––––––––––––––––––––––––––––––––––

Number of tracks: 6
Official DR value: DR11

Samplerate: 48000 Hz
Channels: 2
Bits per sample: 24
Bitrate: 1391 kbps
Codec: FLAC

All thanks go to the original releaser

Download Dizzy Reece - Star Bright (1960):