Federico Colli - Domenico Scarlatti: Piano Sonatas, Vol. 2 (2020) [Official Digital Download 24/96]

Posted By: SERTiL
Federico Colli - Domenico Scarlatti: Piano Sonatas, Vol. 2 (2020) [Official Digital Download 24/96]

Federico Colli - Domenico Scarlatti: Piano Sonatas, Vol. 2 (2020)
FLAC (tracks) 24-bit/96 kHz | Time - 62:24 minutes | 0.98 GB
Studio Master, Official Digital Download | Artwork: Digital Booklet

For his second volume of Scarlatti sonatas, Federico Colli takes as his starting point the double sonata KK 63 and KK 64. These are two dances, the first (G major) full of vivacity and happiness, the second (D minor) full of indignation and peremptoriness. Working from this concept that opposition is needed to truly experience beauty, Colli has created his own personal double sonatas by pairing works with contrasting tempi, dynamics, character, or feeling. Like the first volume, the album was recorded on a Steinway Model D at Potton Hall in Suffolk.

Tracklist:
01. Keyboard Sonata in G Major, Kk. 144 (5:27)
02. Keyboard Sonata in G Major, Kk. 427 (2:11)
03. Keyboard Sonata in F-Sharp Minor, Kk. 25 (3:06)
04. Keyboard Sonata in F-Sharp Major, Kk. 318 (6:30)
05. Keyboard Sonata in G Major, Kk. 431 (0:52)
06. Keyboard Sonata in C Minor, Kk. 40 (1:39)
07. Keyboard Sonata in G Minor, Kk. 30 (2:27)
08. Keyboard Sonata in G Minor, Kk. 35 (2:37)
09. Keyboard Sonata in F Minor, Kk. 466 (9:46)
10. Keyboard Sonata in E Major, Kk. 531 (3:56)
11. Keyboard Sonata in G Major, Kk. 63 (2:04)
12. Keyboard Sonata in D Minor, Kk. 64 (2:10)
13. Keyboard Sonata in A Major, Kk. 279 (5:46)
14. Keyboard Sonata in D Major, Kk. 118 (4:56)
15. Keyboard Sonata in B Minor, Kk. 87 (7:03)
16. Keyboard Sonata in C Major, Kk. 95 (2:00)

foobar2000 1.3.7 / Dynamic Range Meter 1.1.1
log date: 2020-02-26 00:17:33

––––––––––––––––––––––––––––––––––––––––
Analyzed: Federico Colli / Domenico Scarlatti: Piano Sonatas, Vol. 2
––––––––––––––––––––––––––––––––––––––––

DR Peak RMS Duration Track
––––––––––––––––––––––––––––––––––––––––
DR13 -10.43 dB -30.51 dB 5:27 01-Keyboard Sonata in G Major, Kk. 144
DR15 -1.12 dB -19.87 dB 2:11 02-Keyboard Sonata in G Major, Kk. 427
DR13 -1.60 dB -21.69 dB 3:06 03-Keyboard Sonata in F-Sharp Minor, Kk. 25
DR13 -14.84 dB -32.33 dB 6:30 04-Keyboard Sonata in F-Sharp Major, Kk. 318
DR12 -6.70 dB -24.21 dB 0:52 05-Keyboard Sonata in G Major, Kk. 431
DR12 -13.31 dB -32.06 dB 1:39 06-Keyboard Sonata in C Minor, Kk. 40
DR12 -0.85 dB -18.52 dB 2:27 07-Keyboard Sonata in G Minor, Kk. 30
DR13 -2.17 dB -22.44 dB 2:37 08-Keyboard Sonata in G Minor, Kk. 35
DR14 -13.03 dB -32.61 dB 9:46 09-Keyboard Sonata in F Minor, Kk. 466
DR14 -5.83 dB -26.36 dB 3:56 10-Keyboard Sonata in E Major, Kk. 531
DR13 -3.48 dB -20.52 dB 2:04 11-Keyboard Sonata in G Major, Kk. 63
DR14 -1.07 dB -20.08 dB 2:10 12-Keyboard Sonata in D Minor, Kk. 64
DR14 -5.78 dB -26.30 dB 5:46 13-Keyboard Sonata in A Major, Kk. 279
DR14 -4.57 dB -22.62 dB 4:56 14-Keyboard Sonata in D Major, Kk. 118
DR14 -11.47 dB -30.81 dB 7:03 15-Keyboard Sonata in B Minor, Kk. 87
DR14 -15.94 dB -35.70 dB 2:00 16-Keyboard Sonata in C Major, Kk. 95
––––––––––––––––––––––––––––––––––––––––

Number of tracks: 16
Official DR value: DR13

Samplerate: 96000 Hz
Channels: 2
Bits per sample: 24
Bitrate: 2112 kbps
Codec: FLAC
================================================================================


Thanks to the Original customer.