Tags
Language
Tags

Duke Pearson - The Phantom (1968/2020)

Posted By: v3122
Duke Pearson - The Phantom (1968/2020)

Duke Pearson - The Phantom (1968/2020)
FLAC (Tracks) 24-bit/96 kHz | Official Digital Download | Time: 00:38:39
Jazz | Remastered | Blue Note | ~ 803 Mb

After his big band experiment, Duke Pearson returned to a smaller group setting, but he didn't scale back his ambitions. The Phantom finds Pearson writing an ambitious set of post-bop that expands the boundaries of the music with Latin percussion and complex harmonies derived from the avant-garde. His supporting band is fairly large, featuring Jerry Dodgion (flute), Bobby Hutcherson (vibes), Sam T. Brown (guitar), Alexander Gafa (guitar), Bob Cranshaw (bass), Mickey Roker (drums), Carlos "Patato" Valdes (conga), and Victor Pantoja (conga), but they're agile, bringing a spark and energy to the difficult arrangements. The results aren't always successful, but they are intriguing and worth investigating.

~ Solo Musica
Duke Pearson - The Phantom (1968/2020):

Tracklist:

01 - The Phantom 10:22
02 - Blues For Alvina 03:10
03 - Bunda Amerela 05:46
04 - Los Ojos Alegres (The Happy Eyes) 06:18
05 - Say Your're Mine 05:41
06 - The Moana Surf 07:25

Duke Pearson - piano
Jerry Dodgion - flute, alto flute
Bobby Hutcherson - vibraphone
Sam Brown, Al Gafa - guitar
Bob Cranshaw - bass
Mickey Roker - drums
Victor Pantoja - congas
Carlos 'Patato' Valdés - conga, güiro


foobar2000 1.4.3 / Dynamic Range Meter 1.1.1
log date: 2022-04-16 18:40:10

––––––––––––––––––––––––––––––––––––––––
Analyzed: Duke Pearson / The Phantom
––––––––––––––––––––––––––––––––––––––––

DR Peak RMS Duration Track
––––––––––––––––––––––––––––––––––––––––
DR12 -1.48 dB -16.11 dB 10:22 01-The Phantom
DR14 -1.69 dB -19.74 dB 3:10 02-Blues For Alvina
DR12 -1.00 dB -15.56 dB 5:46 03-Bunda Amerela
DR13 -1.76 dB -17.15 dB 6:18 04-Los Ojos Alegres (The Happy Eyes)
DR14 -4.56 dB -21.82 dB 5:41 05-Say Your're Mine
DR13 -1.00 dB -17.93 dB 7:25 06-The Moana Surf
––––––––––––––––––––––––––––––––––––––––

Number of tracks: 6
Official DR value: DR13

Samplerate: 96000 Hz
Channels: 2
Bits per sample: 24
Bitrate: 2785 kbps
Codec: FLAC

All thanks go to the original releaser

Duke Pearson in my Blog

Download Duke Pearson - The Phantom (1968/2020):