Duo Cammarano-Deljavan - Taneyev: Chamber Pieces (2015) [TR24][OF]

Posted By: SERTiL
Duo Cammarano-Deljavan - Taneyev: Chamber Pieces (2015) [TR24][OF]

Duo Cammarano-Deljavan - Taneyev: Chamber Pieces
Classical | FLAC (tracks) 24-bit/88.2 kHz | 157:27 min | 2.54 GB | Digital booklet
Label: Aevea | Tracks: 15 | Rls.date: 2015

"The musical output of the Russian composer Sergei Ivanovich Taneyev (1856-1915) has been suspiciously absent from the mainstream of public performance. Perhaps this can be attributed to a number of reasons, but it should certainly be held that it is not because of the music itself.
As a master of intellect and balance, his compositions share with Brahms a sturdy structural outline combined with a romantic heat which emanates from every phrase and gesture. The confidence of his craft along with a frank and sometimes brutal honesty was to put him at odds with many of his contemporaries, not the least of which were the group of nationalist composers known as The Mighty Handful.
But it would be his close friendship with Tchaikovsky that would bring him to the forefront of the debate between the practitioners of nationalistic style and those of the European. At the heart of his composition, however, was his particular skill and affinity for counterpoint. As a student of the polyphony from its earliest incarnation in the late medieval period to the high baroque, Taneyev's works are rich in the colors and harmonies produced by a strict adherence to traditional and scientific principles of counterpoint practice. This is certainly an attribute he would instill in his own students which included Scriabin, Rachmaninoff, Medtner and Gliere." - Zachariah Stoughton (from the booklet)

TRACKLIST
01. Quartet Op. 20 - I. Allegro brillante
02. Quartet Op. 20 - II. Adagio piu tosto largo
03. Quartet Op. 20 - III. Finale. Allegro molto
04. Trio Op. 22 - I. Allegro
05. Trio Op. 22 - II. Allegro molto
06. Trio Op. 22 - III. Andante espressivo
07. Trio Op. 22 - IV. Finale. Allegro con brio
08. Sonata - I. Allegro
09. Sonata - II. Adagio cantabile
10. Sonata - III. Minuetto. Allegretto
11. Sonata - IV. Allegro ma non troppo
12. Quintet Op. 30 - I. Introduzione. Adagio mesto
13. Quintet Op. 30 - II. Scherzo. Presto
14. Quintet Op. 30 - III. Largo
15. Quintet Op. 30 - IV. Finale. Allegro vivace

foobar2000 1.3.7 / Замер динамического диапазона (DR) 1.1.1
Дата отчёта: 2017-02-09 13:31:17

––––––––––––––––––––––––––––––––––––––––
Анализ: Duo Cammarano-Deljavan, Ensemble - Andrea Agostinelli, Performer - Sergei Ivanovich Taneyev, Composer / Duo Cammarano-Deljavan : Taneyev: Piano Quartet, Op. 20, Piano Trio, Op. 22, Violin Sonata & Piano Quintet, Op. 30 (1-4)
Duo Cammarano-Deljavan, Ensemble - Paolo Castellitto, Performer - Andrea Agostinelli, Performer - Daniele Orlando, Performer - Sergei Ivanovich Taneyev, Composer / Duo Cammarano-Deljavan : Taneyev: Piano Quartet, Op. 20, Piano Trio, Op. 22, Violin Sonata & Piano Quintet, Op. 30 (5-8)
Duo Cammarano-Deljavan, Ensemble - Paolo Castellitto, Performer - Andrea Agostinelli, Performer - Sergei Ivanovich Taneyev, Composer / Duo Cammarano-Deljavan : Taneyev: Piano Quartet, Op. 20, Piano Trio, Op. 22, Violin Sonata & Piano Quintet, Op. 30 (9-11)
Duo Cammarano-Deljavan, Ensemble - Sergei Ivanovich Taneyev, Composer / Duo Cammarano-Deljavan : Taneyev: Piano Quartet, Op. 20, Piano Trio, Op. 22, Violin Sonata & Piano Quintet, Op. 30 (12-15)
––––––––––––––––––––––––––––––––––––––––

DR Пики RMS Продолжительность трека
––––––––––––––––––––––––––––––––––––––––
DR16 0.00 дБ -20.49 дБ 10:29 4-Piano Trio in D Major, Op. 22:Piano Trio in D Major, Op. 22: I. Allegro
DR14 0.00 дБ -19.81 дБ 11:10 5-Piano Trio in D Major, Op. 22:Piano Trio in D Major, Op. 22: II. Allegro molto
DR13 -6.01 дБ -25.87 дБ 7:25 6-Piano Trio in D Major, Op. 22:Piano Trio in D Major, Op. 22: III. Andante espressivo
DR16 0.00 дБ -20.25 дБ 11:03 7-Piano Trio in D Major, Op. 22:Piano Trio in D Major, Op. 22: IV. Finale: Allegro con brio
DR14 0.00 дБ -19.60 дБ 20:30 5-Piano Quintet in G Minor, Op. 30:Piano Quintet in G Minor, Op. 30: I. Introduction: Adagio mesto
DR15 -2.25 дБ -23.24 дБ 6:33 6-Piano Quintet in G Minor, Op. 30:Piano Quintet in G Minor, Op. 30: II. Scherzo
DR14 -2.38 дБ -23.02 дБ 9:15 7-Piano Quintet in G Minor, Op. 30:Piano Quintet in G Minor, Op. 30: III. Largo
DR14 0.00 дБ -18.02 дБ 10:46 8-Piano Quintet in G Minor, Op. 30:Piano Quintet in G Minor, Op. 30: IV. Finale: Allegro vivace
DR15 0.00 дБ -20.46 дБ 15:44 1-Mirages, Op. 113:Piano Quartet in E Major, Op. 20: I. Allegro brillante
DR14 -1.34 дБ -21.49 дБ 11:33 2-Mirages, Op. 113:Piano Quartet in E Major, Op. 20: II. Adagio piu tosto largo
DR15 0.00 дБ -20.98 дБ 18:06 3-Mirages, Op. 113:Piano Quartet in E Major, Op. 20: III. Finale: Allegro molto
DR16 -2.62 дБ -23.75 дБ 6:49 1-Violin Sonata in A Minor:Violin Sonata in A Minor: I. Allegro
DR15 -5.21 дБ -26.31 дБ 7:31 2-Violin Sonata in A Minor:Violin Sonata in A Minor: II. Adagio cantabile
DR15 -2.77 дБ -25.80 дБ 4:34 3-Violin Sonata in A Minor:Violin Sonata in A Minor: III. Minuetto: Allegretto
DR14 -1.34 дБ -23.24 дБ 6:05 4-Violin Sonata in A Minor:Violin Sonata in A Minor: IV. Allegro ma non troppo
––––––––––––––––––––––––––––––––––––––––

Количество треков: 15
Реальные значения DR: DR15

Частота: 88200 Гц
Каналов: 2
Разрядность: 24
Битрейт: 2207 кбит/с
Кодек: FLAC
================================================================================


Thanks to the Original customer.