Eddie 'Lockjaw' Davis - Cookbook, Vol. 1 (1958/2014) [TR24][OF]

Posted By: SERTiL
Eddie 'Lockjaw' Davis - Cookbook, Vol. 1 (1958/2014) [TR24][OF]

Eddie 'Lockjaw' Davis - Cookbook, Vol. 1
Jazz, Soul Jazz | FLAC (tracks) 24-bit/44.1 kHz | 63:54 min | 562 MB | Digital booklet
Label: Prestige Records | Tracks: 07 | Rls.date: 1958/2014

Eddie "Lockjaw" Davis and Shirley Scott set an enduring standard for tenor saxophone/organ groups, beginning with this their first recording together. Davis' authoritative, hard swinging style came through his seasoning as a key player in the Count Basie band. Scott, an accomplished pianist, took up the organ when she joined Davis in 1955, emerging with her distinctive, driving yet subtle style virtually fully formed. The music on this 1958 date holds few surprises; it's meat and potatoes all the way, but it's made using the choicest ingredients. The barbecue sauce is applied in moderation, as the band steers closer to Basie-style swing than to overt R&B riffing. Davis and his working band – Scott and drummer Arthur Edgehill – are joined here by reed player Jerome Richardson and bassist George Duvivier. Richardson, playing flute on most tracks, provides a useful complement to Davis' tenor. Duvivier is indispensable in anchoring the music with a commanding walking bass. Edgehill's quick, light touch helps maintain the swinging, jazzy feel. The tracks comprise three strong Davis originals, two standards, including "But Beautiful," which ranks as a master class in ballad playing, and the CD's centerpiece, the 12-minute plus "In the Kitchen." This slow blues by Johnny Hodges has room for extended soloing all around in a performance that underlines the skill, passion and artistry that made the Davis and Scott partnership a potent and influential combination. Review by Jim Todd

TRACKLIST
1. Have Horn, Will Blow 05:16
2. The Chef 06:01
3. But Beautiful 07:43
4. In The Kitchen 12:52
5. Three Deuces 05:01
6. But Beautiful (alternate take) 07:30
7. Avalon 03:32

PERSONNEL
Eddie 'Lockjaw' Davis, tenor saxophone
Shirley Scott, organ
Jerome Richardson, flute, tenor saxophone (#5)
George Duvivier, bass
Arthur Edgehill - drums

Recorded: June 20, 1958 at Van Gelder Studio, Hackensack, NJ
Remastered: 2006, Rudy Van Gelder at Van Gelder Studio, Englewood Cliffs, NJ


foobar2000 1.3.7 / Замер динамического диапазона (DR) 1.1.1
Дата отчёта: 2016-11-24 21:32:20

––––––––––––––––––––––––––––––––––––––––
Анализ: Eddie 'Lockjaw' Davis, Shirley Scott, George Duvivier, Arthur Edgehill / The Eddie 'Lockjaw' Davis Cookbook, Vol. 1 (1)
Eddie 'Lockjaw' Davis, Shirley Scott, Jerome Richardson, George Duvivier, Arthur Edgehill / The Eddie 'Lockjaw' Davis Cookbook, Vol. 1 (2-7)
––––––––––––––––––––––––––––––––––––––––

DR Пики RMS Продолжительность трека
––––––––––––––––––––––––––––––––––––––––
DR9 0.00 дБ -11.53 дБ 3:32 07-Avalon
DR11 0.00 дБ -12.78 дБ 5:16 01-Have Horn, Will Blow
DR12 0.00 дБ -13.43 дБ 6:01 02-The Chef
DR12 0.00 дБ -13.47 дБ 7:43 03-But Beautiful
DR12 0.00 дБ -14.14 дБ 12:52 04-In The Kitchen
DR10 0.00 дБ -12.07 дБ 5:01 05-Three Deuces
DR12 0.00 дБ -13.86 дБ 7:30 06-But Beautiful (alternate take)
––––––––––––––––––––––––––––––––––––––––

Количество треков: 7
Реальные значения DR: DR11

Частота: 44100 Гц
Каналов: 2
Разрядность: 24
Битрейт: 1511 кбит/с
Кодек: FLAC
================================================================================


Thanks to the Original customer.