Please register here if you want to download anything!

If domain in your address bar is different from the list below
PLEASE LEAVE THAT SITE IMMEDIATELY
❗IT'S A DANGEROUS FAKE❗



Spicy Magazines for Men! ;-)

Eddie Layton - Do You Remember? Radio's Greatest Themes (1965/2015) [Official Digital Download 24/96]

Posted By: Pisulik
Eddie Layton - Do You Remember? Radio's Greatest Themes (1965/2015) [Official Digital Download 24/96]

Eddie Layton - Do You Remember? Radio's Greatest Themes (1965/2015)
FLAC (tracks) 24-bit/96 kHz | Time - 31:46 minutes | 654 MB
Studio Master, Official Digital Download | Artwork: Front cover

Although well regarded by aficionados of space age pop, Hammond organ virtuoso Eddie Layton was even more beloved by visitors to the House That Ruth Built, serving close to four decades as the official organist at baseball's landmark Yankee Stadium. Born October 19, 1925, in Philadelphia, Layton studied music as a child, but majored in meteorology in college. After enlisting in the U.S. Navy during World War II, he first encountered the Hammond in a Naval air station in Linhurst, NJ, and his fate was sealed. After the war Layton studied under the legendary theater pipe organist Jesse Crawford while working the theater circuit himself, eventually landing a steady gig at Radio City Music Hall. From there he worked at CBS, first in radio and later in television Layton was also on the Hammond payroll for over 50 years, touring music stores around the world to demonstrate their organs. (By his own estimate, he visited and performed in over 700 stores on five continents.) Inevitably, Layton became a recording artist as well, signing to Mercury to release a series of jazzy easy listening LPs, including Organ Moods, No Blues on This Cruise, and Better Layton Than Never.

Tracklist:

01. Medley: Smile for Me / Tammany / Love for Three Oranges / Boola Boola
02. Medley: Serenade / How Can I Leave You / Rose of Tralee / Polly Wolly Doodle
03. Medley: Two Guitars / Thining of You / Smile, Darn Ya, Smile
04. Medley: Blue Moon / Thanks for the Memory
05. Medley: Serenade / Some Day I'll Find You / Juanita
06. Medley: Little Orphan Annie / When the Bloom Is On the Sage
07. Medley: Angel's Serenade / One Hour with You / Manhattan Serenade
08. Medley: Merry-Go-Round / Mr. District Attorney / We the People
09. Medley: Seems Like Old Times / Andante Cantabile / Funiculi Funicula
10. Medley: Where the Blue of the Night Meets the Gold of the Day / When the Moon Comes over the Mountain / Rock-A-Bye Baby
11. Medley: The Bob Burns Show / The Jack Benny Show
12. I Love a Mystery
13. The Shadow

foobar2000 1.3.7 / Dynamic Range Meter 1.1.1
log date: 2019-08-13 06:03:15

––––––––––––––––––––––––––––––––––––––––
Analyzed: Eddie Layton / Do You Remember? Radio's Greatest Themes
––––––––––––––––––––––––––––––––––––––––

DR Peak RMS Duration Track
––––––––––––––––––––––––––––––––––––––––
DR11 -0.86 dB -14.51 dB 2:27 01-Medley: Smile for Me / Tammany / Love for Three Oranges / Boola Boola
DR12 0.00 dB -15.12 dB 3:08 02-Medley: Serenade / How Can I Leave You / Rose of Tralee / Polly Wolly Doodle
DR11 -0.58 dB -15.64 dB 2:25 03-Medley: Two Guitars / Thining of You / Smile, Darn Ya, Smile
DR10 -3.90 dB -15.40 dB 3:05 04-Medley: Blue Moon / Thanks for the Memory
DR10 -3.14 dB -15.59 dB 2:54 05-Medley: Serenade / Some Day I'll Find You / Juanita
DR11 -1.20 dB -14.61 dB 2:13 06-Medley: Little Orphan Annie / When the Bloom Is On the Sage
DR11 -3.02 dB -15.50 dB 3:15 07-Medley: Angel's Serenade / One Hour with You / Manhattan Serenade
DR10 -1.17 dB -14.55 dB 1:56 08-Medley: Merry-Go-Round / Mr. District Attorney / We the People
DR11 -1.73 dB -15.63 dB 2:47 09-Medley: Seems Like Old Times / Andante Cantabile / Funiculi Funicula
DR10 -3.46 dB -16.06 dB 2:44 10-Medley: Where the Blue of the Night Meets the Gold of the Day / When the Moon Comes over the Mountain / Rock-A-Bye Baby
DR13 -0.20 dB -16.55 dB 2:17 11-Medley: The Bob Burns Show / The Jack Benny Show
DR10 -1.50 dB -15.75 dB 1:47 12-I Love a Mystery
DR9 -4.45 dB -18.60 dB 0:56 13-The Shadow
––––––––––––––––––––––––––––––––––––––––

Number of tracks: 13
Official DR value: DR11

Samplerate: 96000 Hz
Channels: 2
Bits per sample: 24
Bitrate: 2707 kbps
Codec: FLAC
================================================================================


All thanks go to the original releaser