Edward Gardner - Schubert: Symphonies, Vol. 2 * Nos. 2 & 6 & Italian Overtures (2020) [Official Digital Download 24/96]

Posted By: SERTiL
Edward Gardner - Schubert: Symphonies, Vol. 2 * Nos. 2 & 6 & Italian Overtures (2020) [Official Digital Download 24/96]

City of Birmingham Symphony Orchestra, Edward Gardner - Schubert: Symphonies, Vol. 2 * Nos. 2 & 6 & Italian Overtures (2020)
FLAC (tracks) 24-bit/96 kHz | Time - 75:49 minutes | 1.25 GB
Studio Master, Official Digital Download | Artwork: Digital Booklet

For the second volume in his Birmingham Schubert symphony cycle, Edward Gardner turns to the Second and Sixth Symphonies. Composed between December 1814 and March 1815, the Second Symphony is not only a response by Schubert to the works of Beethoven, and especially the Prometheus Overture, but also strives to push the conventional symphonic boundaries, most notably in the extended exposition of the first movement. Completed in February 1818, the Sixth Symphony was the first to be titled "Große Sinfonie" (grand symphony) by Schubert, a mark of his growing confidence in his work in the symphonic idiom. The two Overtures were composed at the same time as the Sixth Symphony, and are clearly modelled on the overtures of Rossini, whose music was all the rage in Vienna at that time.

Tracklist:
01. Symphony No. 2 in B-Flat Major, D. 125: I. Largo-Allegro vivace
02. Symphony No. 2 in B-Flat Major, D. 125: II. Andante
03. Symphony No. 2 in B-Flat Major, D. 125: III. Menuetto e trio
04. Symphony No. 2 in B-Flat Major, D. 125: IV. Presto
05. Symphony No. 6 in C Major, D. 589 "Little C Major": I. Adagio-Allegro
06. Symphony No. 6 in C Major, D. 589 "Little C Major": II. Andante
07. Symphony No. 6 in C Major, D. 589 "Little C Major": III. Scherzo
08. Symphony No. 6 in C Major, D. 589 "Little C Major": IV. Allegro moderato
09. Overture in D Major, D. 590 "In the Italian Style"
10. Overture in C Major, Op. 170, D. 591 "In the Italian Style"

foobar2000 1.3.7 / Dynamic Range Meter 1.1.1
log date: 2020-02-26 13:22:50

––––––––––––––––––––––––––––––––––––––––
Analyzed: City of Birmingham Symphony Orchestra, Edward Gardner / Schubert: Symphonies, Vol. 2 – Nos. 2 & 6 & Italian Overtures
––––––––––––––––––––––––––––––––––––––––

DR Peak RMS Duration Track
––––––––––––––––––––––––––––––––––––––––
DR16 -0.85 dB -23.23 dB 13:33 01-Symphony No. 2 in B-Flat Major, D. 125: I. Largo - Allegro vivace
DR15 -8.35 dB -30.07 dB 7:47 02-Symphony No. 2 in B-Flat Major, D. 125: II. Andante
DR14 -3.31 dB -22.22 dB 3:05 03-Symphony No. 2 in B-Flat Major, D. 125: III. Menuetto e trio
DR16 -0.87 dB -22.39 dB 7:47 04-Symphony No. 2 in B-Flat Major, D. 125: IV. Presto
DR16 -1.31 dB -24.22 dB 9:06 05-Symphony No. 6 in C Major, D. 589 "Little C Major": I. Adagio - Allegro
DR18 -5.49 dB -29.79 dB 5:26 06-Symphony No. 6 in C Major, D. 589 "Little C Major": II. Andante
DR14 -2.42 dB -25.94 dB 5:40 07-Symphony No. 6 in C Major, D. 589 "Little C Major": III. Scherzo
DR16 -0.77 dB -24.28 dB 9:10 08-Symphony No. 6 in C Major, D. 589 "Little C Major": IV. Allegro moderato
DR16 -1.71 dB -25.42 dB 7:28 09-Overture in D Major, D. 590 "In the Italian Style"
DR15 -1.61 dB -24.02 dB 6:52 10-Overture in C Major, Op. 170, D. 591 "In the Italian Style"
––––––––––––––––––––––––––––––––––––––––

Number of tracks: 10
Official DR value: DR15

Samplerate: 96000 Hz
Channels: 2
Bits per sample: 24
Bitrate: 2356 kbps
Codec: FLAC
================================================================================


Thanks to the Original customer.