Edward Gardner - Saint-Saëns: Piano Concertos Nos. 3, 5 & Other Works (2020) [Official Digital Download 24/96]

Posted By: SERTiL
Edward Gardner - Saint-Saëns: Piano Concertos Nos. 3, 5 & Other Works (2020) [Official Digital Download 24/96]

Louis Lortie, BBC Philharmonic Orchestra & Edward Gardner - Saint-Saëns: Piano Concertos Nos. 3, 5 & Other Works (2020)
FLAC (tracks) 24-bit/96 kHz | Time - 66:48 minutes | 1.13 GB
Studio Master, Official Digital Download | Artwork: Digital Booklet

Louis Lortie completes his survey of the piano concertos of Saint-Saëns with Nos 3 and 5 (the Egyptian), adding the Rhapsodie dAuvergne and Allegro appassionato for good measure. As before, he is joined by Edward Gardner and the BBC Philharmonic.

Tracklist:
01. Rhapsodie d'Auvergne, Op. 73, R. 201 (Version for Piano & Orchestra) (9:34)
02. Piano Concerto No. 3 in E-Flat Major, Op. 29, R. 191: I. Moderato assai (12:17)
03. Piano Concerto No. 3 in E-Flat Major, Op. 29, R. 191: II. Andante (6:25)
04. Piano Concerto No. 3 in E-Flat Major, Op. 29, R. 191: III. Allegro non troppo (7:09)
05. Allegro appassionato in C-Sharp Minor, Op. 70, R. 37 (Version for Piano & Orchestra) (5:48)
06. Piano Concerto No. 5 in F Major, Op. 103, R. 205 "Egyptian": I. Allegro animato (9:40)
07. Piano Concerto No. 5 in F Major, Op. 103, R. 205 "Egyptian": II. Andante (10:31)
08. Piano Concerto No. 5 in F Major, Op. 103, R. 205 "Egyptian": III. Molto allegro (5:27)

Personnel:
Louis Lortie (piano)
BBC Philharmonic
Edward Gardner (conductor)

foobar2000 1.3.7 / Dynamic Range Meter 1.1.1
log date: 2019-12-24 19:01:43

––––––––––––––––––––––––––––––––––––––––
Analyzed: Louis Lortie, BBC Philharmonic Orchestra & Edward Gardner / Saint-Saëns: Piano Concertos Nos. 3, 5 & Other Works
––––––––––––––––––––––––––––––––––––––––

DR Peak RMS Duration Track
––––––––––––––––––––––––––––––––––––––––
DR16 -1.10 dB -25.00 dB 9:34 01-Rhapsodie d'Auvergne, Op. 73, R. 201 (Version for Piano & Orchestra)
DR15 -2.27 dB -23.28 dB 12:17 02-Piano Concerto No. 3 in E-Flat Major, Op. 29, R. 191: I. Moderato assai
DR14 -12.17 dB -32.94 dB 6:25 03-Piano Concerto No. 3 in E-Flat Major, Op. 29, R. 191: II. Andante
DR15 -1.76 dB -22.08 dB 7:09 04-Piano Concerto No. 3 in E-Flat Major, Op. 29, R. 191: III. Allegro non troppo
DR13 -5.10 dB -25.88 dB 5:48 05-Allegro appassionato in C-Sharp Minor, Op. 70, R. 37 (Version for Piano & Orchestra)
DR14 -2.83 dB -22.71 dB 9:40 06-Piano Concerto No. 5 in F Major, Op. 103, R. 205 "Egyptian": I. Allegro animato
DR17 -1.43 dB -25.08 dB 10:31 07-Piano Concerto No. 5 in F Major, Op. 103, R. 205 "Egyptian": II. Andante
DR14 -0.80 dB -20.08 dB 5:27 08-Piano Concerto No. 5 in F Major, Op. 103, R. 205 "Egyptian": III. Molto allegro
––––––––––––––––––––––––––––––––––––––––

Number of tracks: 8
Official DR value: DR15

Samplerate: 96000 Hz
Channels: 2
Bits per sample: 24
Bitrate: 2573 kbps
Codec: FLAC
================================================================================


Thanks to the Original customer.