Tags
Language
Tags

Sir John Barbirolli, Jacqueline du Pré, London Symphony Orchestra, ... - Elgar: Cello Concerto (2022)

Posted By: v3122
Sir John Barbirolli, Jacqueline du Pré, London Symphony Orchestra, ... - Elgar: Cello Concerto (2022)

Sir John Barbirolli, Jacqueline du Pré, London Symphony Orchestra, … - Elgar: Cello Concerto (2022)
DSD64 2.0 | 1-bit/2.8224 MHz | Time: 01:12:37 | ~ 2.97 GB
or 24-bit/88.2 kHz | Flac(Tracks) | ~ 1.14 Gb
Classical/Orchestral/Cello | EMI / Esoteric | SACD-R

~ Elgar: Cello Concerto, "Enigma" Variations, Pomp and Circumstance Marches
Sir John Barbirolli, Jacqueline du Pré, London Symphony Orchestra, New Philharmonia Orchestra ~

Sir John Barbirolli, Jacqueline du Pré, London Symphony Orchestra, … - Elgar: Cello Concerto (2022):


Tracklist:

Cello Concerto in E minor, Op.85
01] I. Adagio - Moderato
02] II. Lento - Allegro molto
03] III. Adagio
04] IV. Allegro - Moderato - Allegro ma non troppo
Jacqueline du Pre, Sir John Barbirolli, London Symphony Orchestra
Variations on an Original Theme, Op.36 "Enigma"
05] Theme
06] Introduction - Variation I. L'istesso tempo "C.A.E."
07] Variation II. Allegro "H.D.S-P."
08] Variation III. Allegretto "R.B.T."
09] Variation IV. Allegro di molto "W.M.B."
10] Variation V. Moderato "R.P.A."
11] Variation VI. Andantino "Ysobel"
12] Variation VII. Presto "Troyte"
13] Variation VIII. Allegretto "W.N."
14] Variation IX. Adagio "Nimrod"
15] Variation X. Intermezzo. Allegretto "Dorabella"
16] Variation XI. Allegro di molto "G.R.S."
17] Variation XII. Andante "B.G.N."
18] Variation XIII. Romanza. Moderato. "* * *"
19] Variation XIV. Finale. Allegro "E.D.U."
Pomp and Circumstance Marches, Op.39
20] No.1 in D major
22] No.4 in G major
Sir John Barbirolli, Philharmonia Orchestra

foobar2000 1.3.13 / Замер динамического диапазона (DR) 1.1.1
Дата отчёта: 2022-05-17 12:11:07

––––––––––––––––––––––––––––––––––––––––
Анализ: Jacqueline du Pre, Sir John Barbirolli, London Symphony Orchestra / Elgar: Cello Concerto, "Enigma" Variations, Pomp and Circumstance Marches (1-4)
Sir John Barbirolli, Philharmonia Orchestra / Elgar: Cello Concerto, "Enigma" Variations, Pomp and Circumstance Marches (5-21)
––––––––––––––––––––––––––––––––––––––––

DR Пики RMS Продолжительность трека
––––––––––––––––––––––––––––––––––––––––
DR14 -3.98 дБ -22.93 дБ 7:58 01-I. Adagio - Moderato [Cello Concerto in E minor, Op.85]
DR15 -4.22 дБ -23.49 дБ 4:31 02-II. Lento - Allegro molto [Cello Concerto in E minor, Op.85]
DR14 -5.59 дБ -25.44 дБ 5:14 03-III. Adagio [Cello Concerto in E minor, Op.85]
DR13 -4.30 дБ -21.94 дБ 12:15 04-IV. Allegro - Moderato - Allegro ma non troppo [Cello Concerto in E minor, Op.85]
DR12 -12.57 дБ -27.20 дБ 1:30 05-Theme [Variations on an Original Theme, Op.36 "Enigma"]
DR13 -5.60 дБ -23.90 дБ 1:48 06-Introduction - Variation I. L'istesso tempo "C.A.E." [Variations on an Original Theme, Op.36 "Enigma"]
DR11 -8.87 дБ -26.74 дБ 0:49 07-Variation II. Allegro "H.D.S-P." [Variations on an Original Theme, Op.36 "Enigma"]
DR13 -7.91 дБ -25.22 дБ 1:28 08-Variation III. Allegretto "R.B.T." [Variations on an Original Theme, Op.36 "Enigma"]
DR10 -4.27 дБ -17.98 дБ 0:30 09-Variation IV. Allegro di molto "W.M.B." [Variations on an Original Theme, Op.36 "Enigma"]
DR12 -7.19 дБ -24.50 дБ 2:16 10-Variation V. Moderato "R.P.A." [Variations on an Original Theme, Op.36 "Enigma"]
DR13 -8.69 дБ -25.85 дБ 1:16 11-Variation VI. Andantino "Ysobel" [Variations on an Original Theme, Op.36 "Enigma"]
DR11 -4.25 дБ -18.41 дБ 1:04 12-Variation VII. Presto "Troyte" [Variations on an Original Theme, Op.36 "Enigma"]
DR12 -7.82 дБ -24.92 дБ 1:48 13-Variation VIII. Allegretto "W.N." [Variations on an Original Theme, Op.36 "Enigma"]
DR12 -4.43 дБ -20.82 дБ 3:34 14-Variation IX. Adagio "Nimrod" [Variations on an Original Theme, Op.36 "Enigma"]
DR13 -7.72 дБ -27.93 дБ 2:25 15-Variation X. Intermezzo. Allegretto "Dorabella" [Variations on an Original Theme, Op.36 "Enigma"]
DR13 -4.75 дБ -21.21 дБ 1:00 16-Variation XI. Allegro di molto "G.R.S." [Variations on an Original Theme, Op.36 "Enigma"]
DR12 -10.68 дБ -26.76 дБ 2:53 17-Variation XII. Andante "B.G.N." [Variations on an Original Theme, Op.36 "Enigma"]
DR14 -6.58 дБ -26.20 дБ 2:49 18-Variation XIII. Romanza. Moderato. "* * *" [Variations on an Original Theme, Op.36 "Enigma"]
DR12 -4.19 дБ -19.53 дБ 5:27 19-Variation XIV. Finale. Allegro "E.D.U." [Variations on an Original Theme, Op.36 "Enigma"]
DR11 -4.29 дБ -19.10 дБ 6:40 20-No.1 in D major [Pomp and Circumstance Marches, Op.39]
DR12 -4.38 дБ -19.56 дБ 5:20 22-No.4 in G major [Pomp and Circumstance Marches, Op.39]
––––––––––––––––––––––––––––––––––––––––

Количество треков: 21
Реальные значения DR: DR13

Частота: 2822400 Гц / Частота PCM: 352800 Гц
Каналов: 2
Разрядность: 24
Битрейт: 5645 кбит/с
Кодек: DSD64

Download Sir John Barbirolli, Jacqueline du Pré, London Symphony Orchestra, … - Elgar: Cello Concerto (2022):