Tags
Language
Tags

Ella Mae Morse - Sensational! (1985) [2021, Remastered, 24-bit/44.1 kHz]

Posted By:
Ella Mae Morse - Sensational! (1985) [2021, Remastered, 24-bit/44.1 kHz]

Ella Mae Morse - Sensational! (1985)
FLAC (Tracks) 24-bit/44.1 kHz | Official Digital Download | Time: 01:12:28
Big Band, Rhythm & Blues, Swing | Label: RevOla | ~ 368 Mb

Ella Mae Morse (September 12, 1924 – October 16, 1999) was an American singer of popular music whose 1940s and 1950s recordings mixing jazz, blues, and country styles influenced the development of rock and roll. Her 1942 recording of "Cow-Cow Boogie" with Freddie Slack and His Orchestra gave Capitol Records its first gold record. In 1943, her single "Get On Board, Little Chillun", also with Slack, charted in what would soon become the R&B charts, making her one of the first white singers to do so. Morse stopped recording in 1957 but continued to perform and tour into the 1990s. In 1960 she received a star on the Hollywood Walk of Fame…

~ wiki
Ella Mae Morse - Sensational! (1985):

Tracklist:

01 - The Blacksmith Blues 03:11
02 - Shoo Shoo Baby 03:18
03 - Pig Foot Pete 02:54
04 - Money Honey 02:38
05 - Milkman Keep Those Bottles Quiet 02:39
06 - No Love, No Nothin'! 02:36
07 - Buzz Me 02:59
08 - Cow-Cow Boogie 03:14
09 - Hoodle Addle 03:15
10 - Good 02:14
11 - Early In The Morning 02:40
12 - Why Shouldn't I? 02:32
13 - The Merry Ha-Ha! 02:24
14 - Tess' Torch Song 03:14
15 - Patty Cake Man 02:55
16 - Invitation To The Blues 03:05
17 - Hey Mr Postman! 03:03
18 - It Ain't Necessarily So 02:21
19 - Jump Back Honey 02:08
20 - Old Shank's Mare 02:54
21 - Love Ya Like Mad 02:41
22 - Hello Suzanne 02:57
23 - I Love You, Yes I Do 02:42
24 - Old Rob Roy 03:13
25 - It's Raining Tears From My Eyes 02:56

foobar2000 1.4.3 / Dynamic Range Meter 1.1.1
log date: 2021-08-25 19:09:07

––––––––––––––––––––––––––––––––––––––––
Analyzed: Ella Mae Morse / Sensational!
––––––––––––––––––––––––––––––––––––––––

DR Peak RMS Duration Track
––––––––––––––––––––––––––––––––––––––––
DR14 -0.75 dB -17.28 dB 3:11 01-The Blacksmith Blues (Remastered)
DR14 -1.79 dB -19.86 dB 3:18 02-Shoo Shoo Baby (Remastered)
DR13 -0.77 dB -16.34 dB 2:54 03-Pig Foot Pete (Remastered)
DR14 -0.73 dB -16.41 dB 2:38 04-Money Honey (Remastered)
DR14 -3.81 dB -20.92 dB 2:40 05-Milkman Keep Those Bottles Quiet (Remastered)
DR11 -2.04 dB -16.45 dB 2:36 06-No Love, No Nothin'! (Remastered)
DR11 -2.71 dB -17.58 dB 3:00 07-Buzz Me (Remastered)
DR13 -0.77 dB -16.47 dB 3:14 08-Cow-Cow Boogie (Remastered)
DR13 -0.77 dB -16.63 dB 3:15 09-Hoodle Addle (Remastered)
DR11 -0.77 dB -13.56 dB 2:14 10-Good (Remastered)
DR12 -1.81 dB -15.58 dB 2:40 11-Early In The Morning (Remastered)
DR13 -0.76 dB -17.94 dB 2:32 12-Why Shouldn't I? (Remastered)
DR12 -0.76 dB -16.00 dB 2:25 13-The Merry Ha-Ha! (Remastered)
DR13 -1.77 dB -17.92 dB 3:14 14-Tess' Torch Song (Remastered)
DR13 -0.76 dB -16.87 dB 2:55 15-Patty Cake Man (Remastered)
DR12 -0.76 dB -15.51 dB 3:05 16-Invitation To The Blues (Remastered)
DR13 -7.05 dB -23.12 dB 3:04 17-Hey Mr Postman! (Remastered)
DR14 -0.74 dB -16.42 dB 2:21 18-It Ain't Necessarily So (Remastered)
DR12 -1.74 dB -15.49 dB 2:08 19-Jump Back Honey (Remastered)
DR13 -0.78 dB -15.63 dB 2:54 20-Old Shank's Mare (Remastered)
DR14 -0.80 dB -17.39 dB 2:41 21-Love Ya Like Mad (Remastered)
DR13 -0.47 dB -17.55 dB 2:57 22-Hello Suzanne (Remastered)
DR15 -0.84 dB -18.61 dB 2:42 23-I Love You, Yes I Do (Remastered)
DR11 -1.79 dB -15.93 dB 3:13 24-Old Rob Roy (Remastered)
DR14 -0.78 dB -16.87 dB 2:56 25-It's Raining Tears From My Eyes (Remastered)
––––––––––––––––––––––––––––––––––––––––

Number of tracks: 25
Official DR value: DR13

Samplerate: 44100 Hz
Channels: 2
Bits per sample: 24
Bitrate: 770 kbps
Codec: FLAC


All thanks go to the original releaser

Download Ella Mae Morse - Sensational! (1985):