Tags
Language
Tags

Ella Fitzgerald & London Symphony Orchestra - Someone to Watch Over Me (2017) [Official Digital Download]

Posted By:
Ella Fitzgerald & London Symphony Orchestra - Someone to Watch Over Me (2017) [Official Digital Download]

Ella Fitzgerald & London Symphony Orchestra - Someone to Watch Over Me (2017)
FLAC (tracks) 24-bit/44.1 kHz | Time - 43:59 minutes | 486 MB
Studio Master, Official Digital Download | Artwork: Front cover

Ella Fitzgerald’s iconic vocals are given new life by marrying newly recorded string arrangements from the London Symphony Orchestra. Recorded at Abbey Road Studios, and conducted by James Morgan and Jorge Callandrelli, this new approach to Ella’s timeless music reinvigorates her catalog and is sure to excite and please long time Ella fanatics and classical music connoisseurs at the same time. Guest vocalist Gregory Porter also lends his incredible talent to "People Will Say We're in Love.”

Arrangements by James Morgan (Alfie Boe, Katherine Jenkins) and Jorge Calandrelli (Michael Bublé, Tony Bennett, Lady GaGa). Guests vocalists include Gregory Porter on "People Will Say We're in Love" and Louis Armstrong on "They Can't Take That Away from Me".

Tracklist:

01. People Will Say We're In Love [feat. Gregory Porter]
02. Someone To Watch Over Me
03. They Can't Take That Away From Me [feat. Louis Armstrong]
04. Bewitched
05. I Get A Kick Out Of You
06. Misty
07. Makin' Whoopee!
08. These Foolish Things (Remind Me Of You)
09. Let's Call The Whole Thing Off [feat. Louis Armstrong]
10. What Is There To Say
11. Let's Do It (Let's Fall In Love)
12. With A Song In My Heart

foobar2000 1.3.7 / Dynamic Range Meter 1.1.1
log date: 2017-10-14 08:07:01

––––––––––––––––––––––––––––––––––––––––
Analyzed: Ella Fitzgerald & London Symphony Orchestra / Someone to Watch Over Me (1-6)
London Symphony Orchestra & Ella Fitzgerald / Someone to Watch Over Me (7-12)
––––––––––––––––––––––––––––––––––––––––

DR Peak RMS Duration Track
––––––––––––––––––––––––––––––––––––––––
DR12 -0.69 dB -15.01 dB 4:40 03-They Can't Take That Away From Me [feat. Louis Armstrong]
DR11 0.00 dB -13.95 dB 3:35 04-Bewitched
DR11 -0.04 dB -14.50 dB 2:59 06-Misty
DR11 -0.12 dB -14.21 dB 4:26 08-These Foolish Things (Remind Me Of You)
DR11 0.00 dB -15.15 dB 3:29 10-What Is There To Say
DR11 -0.08 dB -14.16 dB 3:36 11-Let's Do It (Let's Fall In Love)
DR12 -0.06 dB -13.87 dB 3:14 01-People Will Say We're In Love [feat. Gregory Porter]
DR11 -0.19 dB -13.82 dB 3:26 02-Someone To Watch Over Me
DR13 0.00 dB -14.35 dB 4:15 05-I Get A Kick Out Of You
DR11 0.00 dB -13.97 dB 3:00 07-Makin' Whoopee!
DR11 0.00 dB -13.83 dB 4:22 09-Let's Call The Whole Thing Off [feat. Louis Armstrong]
DR11 -0.20 dB -13.86 dB 2:57 12-With A Song In My Heart
––––––––––––––––––––––––––––––––––––––––

Number of tracks: 12
Official DR value: DR11

Samplerate: 44100 Hz
Channels: 2
Bits per sample: 24
Bitrate: 1526 kbps
Codec: FLAC
================================================================================


All thanks go to the original releaser