Elvis Presley - Elvis Presley (1956/2016) [TR24][OF]

Posted By: SERTiL
Elvis Presley - Elvis Presley (1956/2016) [TR24][OF]

Elvis Presley - Elvis Presley
Rock & Roll | FLAC (tracks) 24-bit/96 kHz | 28:43 min | 304 MB | Front Cover
Label: RCA Victor | Tracks: 12 | Rls.date: 1956/2016

Today it all seems so easy – RCA signs up the kid from Memphis, television gets interested at around the same time, and the rest is history. The circumstances surrounding this album were neither simple nor promising, however, nor was there anything in the history of popular music up to that time to hint that Elvis Presley was going to be anything other than "Steve Sholes' folly," which was what rival executives were already whispering. So a lot was unsettled and untried at the first of two groups of sessions that produced the Elvis Presley album – it wasn't even certain that there was any reason for a rock & roll artist to cut an album, because teenagers bought 45s, not LPs. The first of Elvis' RCA sides yielded one song, "Heartbreak Hotel," that seemed a potential single, but which no one thought would sell, and a few tracks that would be good enough for an album, if there were one. But no one involved knew anything for sure about this music. Seventeen days later, "Heartbreak Hotel" was released, and for about a month it did nothing – then it began to move, and then Elvis appeared on television, and had a number one pop single. The album Sholes wanted out of Elvis came from two groups of sessions in January and February, augmented by five previously unissued songs from the Sun library. This was as startling a debut record as any ever made, representing every side of Elvis' musical influences except gospel – rockabilly, blues, R&B, country, and pop were all here in an explosive and seductive combination. Elvis Presley became the first rock & roll album to reach the number one spot on the national charts, and RCA's first million dollar-earning pop album. Review by Bruce Eder

TRACKLIST
1. Blue Suede Shoes 02:02
2. I'm Counting on You 02:26
3. I Got a Woman 02:27
4. One-Sided Love Affair 02:12
5. I Love You Because 02:43
6. Just Because 02:34
7. Tutti Frutti 02:00
8. Trying to Get to You 02:33
9. I'm Gonna Sit Right Down and Cry (Over You) 02:06
10. I'll Never Let You Go (Little Darlin') 02:26
11. Blue Moon 02:45
12. Money Honey 02:35

foobar2000 1.3.7 / Замер динамического диапазона (DR) 1.1.1
Дата отчёта: 2017-02-02 12:41:35

––––––––––––––––––––––––––––––––––––––––
Анализ: Elvis Presley / Elvis Presley
––––––––––––––––––––––––––––––––––––––––

DR Пики RMS Продолжительность трека
––––––––––––––––––––––––––––––––––––––––
DR11 -0.61 дБ -13.27 дБ 2:02 1-Blue Suede Shoes
DR13 0.00 дБ -15.77 дБ 2:26 2-I'm Counting on You
DR13 -0.24 дБ -16.19 дБ 2:27 3-I Got a Woman
DR10 -1.14 дБ -12.59 дБ 2:12 4-One-Sided Love Affair
DR11 -2.90 дБ -17.36 дБ 2:43 5-I Love You Because
DR10 -3.36 дБ -15.01 дБ 2:34 6-Just Because
DR12 0.00 дБ -12.95 дБ 2:00 7-Tutti Frutti
DR12 0.00 дБ -12.90 дБ 2:33 8-Trying to Get to You
DR11 0.00 дБ -13.13 дБ 2:06 9-I'm Gonna Sit Right Down and Cry (Over You)
DR10 -0.76 дБ -14.62 дБ 2:26 10-I'll Never Let You Go (Little Darlin')
DR10 -0.58 дБ -17.63 дБ 2:45 11-Blue Moon
DR14 0.00 дБ -15.95 дБ 2:35 12-Money Honey
––––––––––––––––––––––––––––––––––––––––

Количество треков: 12
Реальные значения DR: DR12

Частота: 96000 Гц
Каналов: 2
Разрядность: 24
Битрейт: 1529 кбит/с
Кодек: FLAC
================================================================================


Thanks to the Original customer.